Today is a free download without charge Download

VA - Disco Fever CD3 (1998) [FLAC|Lossless|tracks + .cue]<Pop, Disco>

Reply to topic
 
Author
Message

Soldat_5 ®

Longevity: 1 year 2 months

Posts: 169

Торрент-статистика

Post 30-Dec-2020 16:41

[Quote]

VA - Disco Fever CD3 (1998) - Год: 1998
Жанр: Pop, Disco
Издание: Sony 491763 3
Источник (релизер): eloychik ®
Продолжительность: 01:05:24
Кодек: FLAC
Битрейт: Lossless
Тип рипа: tracks + .cue
Трэклист:
01. Hot Chocolate - You Sexy Thing
02. Indeep - Last Night A D.J. Saved My Life
03. Musique - In The Bush
04. Evelyn Thomas - High Energy
05. Electric Light Orchestra - Don't Bring Me Down
06. The Flirts - Passion
07. Divine - Shoot Your Shot
08. Scotch - Disco Band
09. Kano - Another Life
10. M - Pop Muzik
11. Shannon - Let The Music Play
12. Timex Social Club - Rumors
13. Tony Esposito - Kalimba De Luna
14. Imagination - Just An Illusion
15. The Three Degrees - Dirty Ol'ma

Отчёт ЕАС&#58;

Код:
Exact Audio Copy V1.3 from 2. September 2016
Отчёт EAC об извлечении, выполненном 28. декабря 2020, 18:03
Various Artists / Disco Fever ( CD 3 )
Дисковод: Optiarc DVD RW AD-7240S   Adapter: 1  ID: 1
Режим чтения                 : Достоверность
Использование точного потока : Да
Отключение кэша аудио        : Да
Использование указателей C2  : Нет
Коррекция смещения при чтении                     : 48
Способность читать области Lead-in и Lead-out     : Нет
Заполнение пропущенных сэмплов тишиной            : Да
Удаление блоков с тишиной в начале и конце        : Нет
При вычислениях CRC использовались нулевые сэмплы : Да
Интерфейс                                         : Встроенный Win32-интерфейс для Win NT/2000
Обработка зазоров                                 : Добавлено к предыдущему треку
Выходной формат          : Пользовательский кодировщик
Выбранный битрейт        : 128 kBit/s
Качество                 : Высокий
Добавление ID3-тега      : Нет
Утилита сжатия           : C:\Program Files (x86)\Exact Audio Copy\Flac\flac.exe
Дополнительные параметры : -8 -V -T "TITLE=%title%" -T "ARTIST=%artist%" -T "ALBUMARTIST=%albumartist%" -T "ALBUM=%albumtitle%" -T "DATE=%year%" -T "TRACKNUMBER=%tracknr%" -T "TRACKTOTAL=%numtracks%" -T "GENRE=%genre%" -T "COMMENT=%comment%" -T "PERFORMER=%albuminterpret%" -T "COMPOSER=%composer%" %source% -o %dest%
TOC извлечённого CD
     Трек |   Старт  | Длительность | Начальный сектор | Конечный сектор
    ---------------------------------------------------------------------
       1  |  0:00.00 |    4:03.37   |           0      |      18261
       2  |  4:03.37 |    5:41.00   |       18262      |      43836
       3  |  9:44.37 |    3:59.25   |       43837      |      61786
       4  | 13:43.62 |    3:51.50   |       61787      |      79161
       5  | 17:35.37 |    4:03.25   |       79162      |      97411
       6  | 21:38.62 |    5:00.25   |       97412      |     119936
       7  | 26:39.12 |    6:25.38   |      119937      |     148849
       8  | 33:04.50 |    3:56.25   |      148850      |     166574
       9  | 37:01.00 |    3:52.37   |      166575      |     184011
      10  | 40:53.37 |    3:18.38   |      184012      |     198899
      11  | 44:12.00 |    3:30.25   |      198900      |     214674
      12  | 47:42.25 |    4:10.25   |      214675      |     233449
      13  | 51:52.50 |    5:01.12   |      233450      |     256036
      14  | 56:53.62 |    3:56.25   |      256037      |     273761
      15  | 60:50.12 |    4:33.68   |      273762      |     294304
Трек  1
     Имя файла E:\Раздачи\NNMClub-eloychik ®\Various Artists -  Disco Fever CD 3 [NNM-Club.to]\01. You Sexy Thing - Hot Chocolate.wav
     Длина предзазора  0:00:02.00
     Пиковый уровень 98.0 %
     Скорость извлечения 2.4 X
     Качество трека 100.0 %
     CRC теста 7500FD53
     CRC копии 7500FD53
     Точное извлечение (достоверность 6)  [4A473B19]  (AR v2)
     Копирование... OK
Трек  2
     Имя файла E:\Раздачи\NNMClub-eloychik ®\Various Artists -  Disco Fever CD 3 [NNM-Club.to]\02. Last Night A D.J. Saved My Life - Indeep.wav
     Длина предзазора  0:00:01.02
     Пиковый уровень 98.0 %
     Скорость извлечения 2.8 X
     Качество трека 100.0 %
     CRC теста 3CBF39A3
     CRC копии 3CBF39A3
     Точное извлечение (достоверность 5)  [BF2A02A7]  (AR v2)
     Копирование... OK
Трек  3
     Имя файла E:\Раздачи\NNMClub-eloychik ®\Various Artists -  Disco Fever CD 3 [NNM-Club.to]\03. In The Bush - Musique.wav
     Длина предзазора  0:00:01.25
     Пиковый уровень 98.0 %
     Скорость извлечения 3.0 X
     Качество трека 100.0 %
     CRC теста 3F5421FD
     CRC копии 3F5421FD
     Точное извлечение (достоверность 4)  [3F08F368]  (AR v2)
     Копирование... OK
Трек  4
     Имя файла E:\Раздачи\NNMClub-eloychik ®\Various Artists -  Disco Fever CD 3 [NNM-Club.to]\04. High Energy - Evelyn Thomas.wav
     Длина предзазора  0:00:01.02
     Пиковый уровень 98.0 %
     Скорость извлечения 3.2 X
     Качество трека 100.0 %
     CRC теста 58AB2AC7
     CRC копии 58AB2AC7
     Точное извлечение (достоверность 6)  [892BF839]  (AR v2)
     Копирование... OK
Трек  5
     Имя файла E:\Раздачи\NNMClub-eloychik ®\Various Artists -  Disco Fever CD 3 [NNM-Club.to]\05. Don't Bring Me Down - Electric Light Orchestra.wav
     Длина предзазора  0:00:01.07
     Пиковый уровень 90.8 %
     Скорость извлечения 3.0 X
     Качество трека 99.9 %
     CRC теста F6019C5C
     CRC копии F6019C5C
     Точное извлечение (достоверность 6)  [5D32018C]  (AR v2)
     Копирование... OK
Трек  6
     Имя файла E:\Раздачи\NNMClub-eloychik ®\Various Artists -  Disco Fever CD 3 [NNM-Club.to]\06. Passion - The Flirts.wav
     Длина предзазора  0:00:01.25
     Пиковый уровень 98.0 %
     Скорость извлечения 3.7 X
     Качество трека 100.0 %
     CRC теста E4A7021B
     CRC копии E4A7021B
     Точное извлечение (достоверность 6)  [4D72BE8A]  (AR v2)
     Копирование... OK
Трек  7
     Имя файла E:\Раздачи\NNMClub-eloychik ®\Various Artists -  Disco Fever CD 3 [NNM-Club.to]\07. Shoot Your Shot - Divine.wav
     Длина предзазора  0:00:01.02
     Пиковый уровень 98.3 %
     Скорость извлечения 4.1 X
     Качество трека 100.0 %
     CRC теста 6C90DE88
     CRC копии 6C90DE88
     Точное извлечение (достоверность 6)  [CC5EAD98]  (AR v2)
     Копирование... OK
Трек  8
     Имя файла E:\Раздачи\NNMClub-eloychik ®\Various Artists -  Disco Fever CD 3 [NNM-Club.to]\08. Disco Band - Scotch.wav
     Длина предзазора  0:00:01.28
     Пиковый уровень 98.2 %
     Скорость извлечения 4.0 X
     Качество трека 100.0 %
     CRC теста 516E6418
     CRC копии 516E6418
     Точное извлечение (достоверность 6)  [92F64F94]  (AR v2)
     Копирование... OK
Трек  9
     Имя файла E:\Раздачи\NNMClub-eloychik ®\Various Artists -  Disco Fever CD 3 [NNM-Club.to]\09. Another Life - Kano.wav
     Длина предзазора  0:00:00.73
     Пиковый уровень 98.0 %
     Скорость извлечения 4.2 X
     Качество трека 100.0 %
     CRC теста 0F1E1749
     CRC копии 0F1E1749
     Точное извлечение (достоверность 6)  [54679B02]  (AR v2)
     Копирование... OK
Трек 10
     Имя файла E:\Раздачи\NNMClub-eloychik ®\Various Artists -  Disco Fever CD 3 [NNM-Club.to]\10. Pop Muzik - M.wav
     Длина предзазора  0:00:01.00
     Пиковый уровень 98.2 %
     Скорость извлечения 3.7 X
     Качество трека 99.9 %
     CRC теста CC4E141B
     CRC копии CC4E141B
     Точное извлечение (достоверность 6)  [06A2B15D]  (AR v2)
     Копирование... OK
Трек 11
     Имя файла E:\Раздачи\NNMClub-eloychik ®\Various Artists -  Disco Fever CD 3 [NNM-Club.to]\11. Let The Music Play - Shannon.wav
     Длина предзазора  0:00:01.00
     Пиковый уровень 98.5 %
     Скорость извлечения 4.4 X
     Качество трека 100.0 %
     CRC теста 6D7A0ECE
     CRC копии 6D7A0ECE
     Точное извлечение (достоверность 4)  [9BB10127]  (AR v2)
     Копирование... OK
Трек 12
     Имя файла E:\Раздачи\NNMClub-eloychik ®\Various Artists -  Disco Fever CD 3 [NNM-Club.to]\12. Rumors - Timex Social Club.wav
     Длина предзазора  0:00:01.00
     Пиковый уровень 98.0 %
     Скорость извлечения 4.1 X
     Качество трека 99.9 %
     CRC теста A74311B8
     CRC копии A74311B8
     Точное извлечение (достоверность 5)  [7E81B07C]  (AR v2)
     Копирование... OK
Трек 13
     Имя файла E:\Раздачи\NNMClub-eloychik ®\Various Artists -  Disco Fever CD 3 [NNM-Club.to]\13. Kalimba De Luna - Tony Esposito.wav
     Длина предзазора  0:00:00.73
     Пиковый уровень 98.1 %
     Скорость извлечения 4.9 X
     Качество трека 100.0 %
     CRC теста EF8C2131
     CRC копии EF8C2131
     Точное извлечение (достоверность 4)  [E3BD12A0]  (AR v2)
     Копирование... OK
Трек 14
     Имя файла E:\Раздачи\NNMClub-eloychik ®\Various Artists -  Disco Fever CD 3 [NNM-Club.to]\14. Just An Illusion - Imagination.wav
     Длина предзазора  0:00:00.72
     Пиковый уровень 98.3 %
     Скорость извлечения 4.9 X
     Качество трека 100.0 %
     CRC теста 087CEC6B
     CRC копии 087CEC6B
     Точное извлечение (достоверность 6)  [5AAC389B]  (AR v2)
     Копирование... OK
Трек 15
     Имя файла E:\Раздачи\NNMClub-eloychik ®\Various Artists -  Disco Fever CD 3 [NNM-Club.to]\15. Dirty Ol'ma - The Three Degrees.wav
     Длина предзазора  0:00:01.00
     Пиковый уровень 98.0 %
     Скорость извлечения 4.6 X
     Качество трека 99.9 %
     CRC теста 2E7B1081
     CRC копии 2E7B1081
     Точное извлечение (достоверность 5)  [778DAAF4]  (AR v2)
     Копирование... OK
Все треки извлечены точно
Ошибок не произошло
Конец отчёта
==== Контрольная сумма отчёта 571C2A68C008BF97298C80438529809140770A88177CAE54574A662D431DC2CD ====
Время раздачи: Пн-Пт с 17:00 до 20:00 и по возможности
Other forum [Profile] [PM]

Dagel(tm)

Gender:

Longevity: 1 year

Posts: 36

Торрент-статистика

Post 04-Jan-2021 12:48 (after 4 days)

[Quote]

Просьба сменить торрент-файл на этот

предлагается изменить

  • убран лишний пробел после дефиса в имени папки
  • переименованы .flac-файлы по шаблону: НОМЕР ТРЕКА. Исполнитель - Название
  • убраны скобки с пробелами в имени cue-файла, обложек, плейлиста и лога
  • переименованы имена файлов, забитые в .CUE: c .wav на .flac
  • переименованы имена файлов, забитые в .CUE: по указанному выше шаблону
  • переименованы имена файлов, забитые в плейлист: по указанному выше шаблону
  • плейлист выше сохранен как Disco Fever CD 3.m3u
  • удалён плейлист Various Artists - Disco Fever CD 3.m3u
  • убраны из .CUE COMPOSER ""
  • убраны пробелы после кавычек в .CUE в некоторых строках PERFORMER
  • убраны из .CUE INDEX 00, которые не любит плеер Foobar2000
  • переставлены по порядку строки FILE "....flac" WAVE: было перед INDEX 01, стало перед TRACK ## AUDIO
  • перемещён вне папки с контентом файл Disco Fever ( CD 3 ).cue, изначальное его содержание сохранено
    Код:
    REM GENRE "Pop, Disco"
    REM DATE 1998
    REM DISCID C40F540F
    REM COMMENT "ExactAudioCopy v1.3"
    PERFORMER "Various Artists"
    TITLE "Disco Fever ( CD 3 )"
    REM COMPOSER ""
    FILE "01. You Sexy Thing - Hot Chocolate.wav" WAVE
      TRACK 01 AUDIO
        TITLE "You Sexy Thing"
        PERFORMER "Hot Chocolate"
        REM COMPOSER ""
        INDEX 01 00:00:00
      TRACK 02 AUDIO
        TITLE "Last Night A D.J. Saved My Life"
        PERFORMER "Indeep"
        REM COMPOSER ""
        INDEX 00 04:02:35
    FILE "02. Last Night A D.J. Saved My Life - Indeep.wav" WAVE
        INDEX 01 00:00:00
      TRACK 03 AUDIO
        TITLE "In The Bush"
        PERFORMER "Musique "
        REM COMPOSER ""
        INDEX 00 05:39:50
    FILE "03. In The Bush - Musique.wav" WAVE
        INDEX 01 00:00:00
      TRACK 04 AUDIO
        TITLE "High Energy"
        PERFORMER "Evelyn Thomas "
        REM COMPOSER ""
        INDEX 00 03:58:23
    FILE "04. High Energy - Evelyn Thomas.wav" WAVE
        INDEX 01 00:00:00
      TRACK 05 AUDIO
        TITLE "Don't Bring Me Down"
        PERFORMER "Electric Light Orchestra "
        REM COMPOSER ""
        INDEX 00 03:50:43
    FILE "05. Don't Bring Me Down - Electric Light Orchestra.wav" WAVE
        INDEX 01 00:00:00
      TRACK 06 AUDIO
        TITLE "Passion"
        PERFORMER "The Flirts"
        REM COMPOSER ""
        INDEX 00 04:02:00
    FILE "06. Passion - The Flirts.wav" WAVE
        INDEX 01 00:00:00
      TRACK 07 AUDIO
        TITLE "Shoot Your Shot"
        PERFORMER "Divine "
        REM COMPOSER ""
        INDEX 00 04:59:23
    FILE "07. Shoot Your Shot - Divine.wav" WAVE
        INDEX 01 00:00:00
      TRACK 08 AUDIO
        TITLE "Disco Band"
        PERFORMER "Scotch "
        REM COMPOSER ""
        INDEX 00 06:24:10
    FILE "08. Disco Band - Scotch.wav" WAVE
        INDEX 01 00:00:00
      TRACK 09 AUDIO
        TITLE "Another Life"
        PERFORMER "Kano"
        REM COMPOSER ""
        INDEX 00 03:55:27
    FILE "09. Another Life - Kano.wav" WAVE
        INDEX 01 00:00:00
      TRACK 10 AUDIO
        TITLE "Pop Muzik"
        PERFORMER "M"
        REM COMPOSER ""
        INDEX 00 03:51:37
    FILE "10. Pop Muzik - M.wav" WAVE
        INDEX 01 00:00:00
      TRACK 11 AUDIO
        TITLE "Let The Music Play"
        PERFORMER "Shannon"
        REM COMPOSER ""
        INDEX 00 03:17:38
    FILE "11. Let The Music Play - Shannon.wav" WAVE
        INDEX 01 00:00:00
      TRACK 12 AUDIO
        TITLE "Rumors"
        PERFORMER "Timex Social Club"
        REM COMPOSER ""
        INDEX 00 03:29:25
    FILE "12. Rumors - Timex Social Club.wav" WAVE
        INDEX 01 00:00:00
      TRACK 13 AUDIO
        TITLE "Kalimba De Luna"
        PERFORMER "Tony Esposito"
        REM COMPOSER ""
        INDEX 00 04:09:27
    FILE "13. Kalimba De Luna - Tony Esposito.wav" WAVE
        INDEX 01 00:00:00
      TRACK 14 AUDIO
        TITLE "Just An Illusion"
        PERFORMER "Imagination"
        REM COMPOSER ""
        INDEX 00 05:00:15
    FILE "14. Just An Illusion - Imagination.wav" WAVE
        INDEX 01 00:00:00
      TRACK 15 AUDIO
        TITLE "Dirty Ol'ma"
        PERFORMER "The Three Degrees "
        REM COMPOSER ""
        INDEX 00 03:55:25
    FILE "15. Dirty Ol'ma - The Three Degrees.wav" WAVE
        INDEX 01 00:00:00
    (мои Фубар его не читает, "Invalid index line 18...")
  • Проставлены "метаданные" в плейлисте Disco Fever CD 3.m3u с помощью Winamp'а, трёхзначные числа не удалены (рандомные?)
  • Сгенерена с помощью Winamp'а html-страничка с длиной каждого трека, предлагается вставить треклист оттуда в оформление по адресу VA - Disco Fever CD3 (1998) [FLAC|Lossless|tracks + .cue]<Pop, Disco>
  • из CD.PNG сделан постер с помощью Paint.NET в 512x512 до 100кб весом для совместимости с NNM-Club
  • Часть оформления предложена к правке, а именно:
    • постер
    Код:
    [img=right]https://d.radikal.ru/d21/2101/9e/139817e9acf4.jpg[/img]
    • треклист
    01. Hot Chocolate - You Sexy Thing (4:03)
    02. Indeep - Last Night A D.J. Saved My Life (5:41)
    03. Musique - In The Bush (3:59)
    04. Evelyn Thomas - High Energy (3:51)
    05. Electric Light Orchestra - Don't Bring Me Down (4:03)
    06. The Flirts - Passion (5:00)
    07. Divine - Shoot Your Shot (6:25)
    08. Scotch - Disco Band (3:56)
    09. Kano - Another Life (3:52)
    10. M - Pop Muzik (3:18)
    11. Shannon - Let The Music Play (3:30)
    12. Timex Social Club - Rumors (4:10)
    13. Tony Esposito - Kalimba De Luna (5:01)
    14. Imagination - Just An Illusion (3:56)
    15. The Three Degrees - Dirty Ol'ma (4:33)
  • Результат AuCDTect 6 трека MPEG 95%

    по всем трекам

    Код:
    -----------------------
    DON'T MODIFY THIS FILE
    -----------------------
    PERFORMER: auCDtect Task Manager, ver. 1.6.0 RC1 build 1.6.0.1
    Copyright (c) 2008-2010 y-soft. All rights reserved
    http://y-soft.org
    ANALYZER: auCDtect: CD records authenticity detector, version 0.8.2
    Copyright (c) 2004 Oleg Berngardt. All rights reserved.
    Copyright (c) 2004 Alexander Djourik. All rights reserved.
    FILE: 01. Hot Chocolate - You Sexy Thing.flac
      Size: 25540632 Hash: 92D3C53845D4516F4440C6F5C82B3B8A Accuracy: -m0
      Conclusion: CDDA 100%
      Signature: 5B58A28AEE781B754F9E75A2767BC35EA303EB28
    FILE: 02. Indeep - Last Night A D.J. Saved My Life.flac
      Size: 37324811 Hash: B4FB53F2494DFDE09842AA5BC000C586 Accuracy: -m0
      Conclusion: CDDA 100%
      Signature: 6A0227B3276719790F0629012401345E29A1DF53
    FILE: 03. Musique - In The Bush.flac
      Size: 29035347 Hash: C2EBD05E0CD3398E4D4EB389A757BD5A Accuracy: -m0
      Conclusion: CDDA 100%
      Signature: 194CD71EE24A1ACCD293E2D1FE9633498D38B0F3
    FILE: 04. Evelyn Thomas - High Energy.flac
      Size: 27214445 Hash: 7DBC7C9F4814DB0C88636B72483BC4F8 Accuracy: -m0
      Conclusion: CDDA 100%
      Signature: 9F054DEE7296724D4C2FDE19A7B39FAE8070BFBF
    FILE: 05. Electric Light Orchestra - Don't Bring Me Down.flac
      Size: 32746817 Hash: 180218E951E97C16C9541489FE6A19C9 Accuracy: -m0
      Conclusion: CDDA 100%
      Signature: 6BAD9DCF93F500C7EDA4A3424E7A04FFC928FE65
    FILE: 06. The Flirts - Passion.flac
      Size: 35188083 Hash: 03BB5A5B4DD4DD9DF85476D20948A342 Accuracy: -m0
      Conclusion: MPEG 95%
      Signature: 3926862E288D25692C94C6DFF3C08CFBD22382FC
    FILE: 07. Divine - Shoot Your Shot.flac
      Size: 39865944 Hash: A937CCDCCE80A0E6A02546686CFA837A Accuracy: -m0
      Conclusion: CDDA 100%
      Signature: FCFA1E76BA0E2458796E31E346F76F090F80F1B8
    FILE: 08. Scotch - Disco Band.flac
      Size: 26548349 Hash: F665351F08144366695E15870EC5647F Accuracy: -m0
      Conclusion: CDDA 100%
      Signature: 8C4C7E79E9698D189022213159CBE78261D2A35D
    FILE: 09. Kano - Another Life.flac
      Size: 27213072 Hash: 9BCFEFB8ADFEB5F898CE4C2879816022 Accuracy: -m0
      Conclusion: CDDA 100%
      Signature: 9A1DC5AE5E3CAB27557FBDCE6596C7FE7000472A
    FILE: 10. M - Pop Muzik.flac
      Size: 23239648 Hash: 313E36F393EB6B71CA79E15AF7988A44 Accuracy: -m0
      Conclusion: CDDA 100%
      Signature: F72153E093E42E0F8DB6F6CFCC64A4B53F42581F
    FILE: 11. Shannon - Let The Music Play.flac
      Size: 25690356 Hash: E9FDA58D84D65666DD14EB103F3486D5 Accuracy: -m0
      Conclusion: CDDA 100%
      Signature: 2A6A5B5538FE8C0CCEE65EDB32B24AE959F66A69
    FILE: 12. Timex Social Club - Rumors.flac
      Size: 29943906 Hash: F3B0F5B841FB27D2DAD8D78C457638E1 Accuracy: -m0
      Conclusion: CDDA 100%
      Signature: 8BF8BE1F08B7902E1E1B10976EEAFE1F72201350
    FILE: 13. Tony Esposito - Kalimba De Luna.flac
      Size: 27155946 Hash: B8566D3F7F33D3FBDC9AE009F2827A15 Accuracy: -m0
      Conclusion: CDDA 100%
      Signature: AB4FA4D702967ED3F8F70A30DC776FF072E8F806
    FILE: 14. Imagination - Just An Illusion.flac
      Size: 25771428 Hash: 0834677643D429C637E4AB674FAF895D Accuracy: -m0
      Conclusion: CDDA 100%
      Signature: A82F7A44CE866419BC72ABD63514A5649C3D40E6
    FILE: 15. The Three Degrees - Dirty Ol'ma.flac
      Size: 28603349 Hash: D65F819E49FF84A060CF60499FAA0D50 Accuracy: -m0
      Conclusion: CDDA 100%
      Signature: E484A45AB1BFA956E3AA9EE34317AAA6D46E56F0
    Аудиоматериал не затронут.

_________________
так, по крайней мере, я чуВствую
Other forum [Profile] [PM]
Display posts from previous:    
Reply to topic

The time now is: Today 16:06

All times are GMT + 3 Hours



You cannot post new topics in this forum
You cannot reply to topics in this forum
You cannot edit your posts in this forum
You cannot delete your posts in this forum
You cannot vote in polls in this forum
You cannot attach files in this forum
You cannot download files in this forum