Today is a free download without charge Download

Jeff Lorber - West Side Stories (1994) [FLAC|Lossless|tracks + .cue] <Fusion, Smooth Jazz, Crossover Jazz>

Reply to topic
 
Author
Message

Soldat_5 ®

Longevity: 1 year 3 months

Posts: 172

Торрент-статистика

Post 25-Jan-2021 21:18

[Quote]

Jeff Lorber - West Side Stories (1994) - Жанр: Fusion, Smooth Jazz, Crossover Jazz
Издание: Verve Forecast - 314 523 738-2
Источник: Diskogs
Продолжительность: 00:49:53
Кодек: FLAC
Битрейт: Lossless
Тип рипа: tracks + .cue
Треклист:
1. Grasshopper (Lorber) - 4:20
2. Point Venus (Lorber) - 4:30
3. Iguassu Falls (Lorber, Milstein) - 5:17
4. Let the River Run (Lorber) - 4:25
5. Say Love (Lorber, McClain, Pescetto) - 4:13
6. Road Song (Lorber) - 4:13
7. No Regrets (Lorber) - 5:13
8. Tour's End (Lorber) - 4:23
9. Tuva (Lorber) - 5:00
10. Don't Forget the Love (Benet, Lorber) - 4:35
11. Toad's Place (Lorber) - 3:44

Отчёт EAC&#58;

Exact Audio Copy V1.3 from 2. September 2016
EAC extraction logfile from 24. March 2017, 14:38
Jeff Lorber / West Side Stories
Used drive : HL-DT-STDVDRAM GSA-T50N Adapter: 1 ID: 0
Read mode : Secure
Utilize accurate stream : Yes
Defeat audio cache : Yes
Make use of C2 pointers : No
Read offset correction : 667
Overread into Lead-In and Lead-Out : No
Fill up missing offset samples with silence : Yes
Delete leading and trailing silent blocks : No
Null samples used in CRC calculations : Yes
Used interface : Native Win32 interface for Win NT & 2000
Gap handling : Appended to previous track
Used output format : User Defined Encoder
Selected bitrate : 1024 kBit/s
Quality : High
Add ID3 tag : No
Command line compressor : C:\Program Files\Exact Audio Copy\Flac\flac.exe
Additional command line options : -V -8 -T "Genre=%genre%" -T "Artist=%artist%" -T "Title=%title%" -T "Album=%albumtitle%" -T "Date=%year%" -T "Tracknumber=%tracknr%" %source% -o %dest%
TOC of the extracted CD
Track | Start | Length | Start sector | End sector
---------------------------------------------------------
1 | 0:00.00 | 4:23.23 | 0 | 19747
2 | 4:23.23 | 4:31.72 | 19748 | 40144
3 | 8:55.20 | 5:18.43 | 40145 | 64037
4 | 14:13.63 | 4:28.47 | 64038 | 84184
5 | 18:42.35 | 4:16.10 | 84185 | 103394
6 | 22:58.45 | 4:14.45 | 103395 | 122489
7 | 27:13.15 | 5:17.00 | 122490 | 146264
8 | 32:30.15 | 4:26.13 | 146265 | 166227
9 | 36:56.28 | 5:01.42 | 166228 | 188844
10 | 41:57.70 | 4:30.03 | 188845 | 209097
11 | 46:27.73 | 3:43.30 | 209098 | 225852
Track 1
Filename C:\New rips\Jeff Lorber - West Side Stories - 1994 (Verve Forecast 314 523 738-2) [FLAC]\01 - Grasshopper.wav
Pre-gap length 0:00:02.00
Peak level 100.0 %
Extraction speed 1.2 X
Track quality 100.0 %
Test CRC 9A11827A
Copy CRC 9A11827A
Accurately ripped (confidence 21) [A94DF132] (AR v2)
Copy OK
Track 2
Filename C:\New rips\Jeff Lorber - West Side Stories - 1994 (Verve Forecast 314 523 738-2) [FLAC]\02 - Point Venus.wav
Pre-gap length 0:00:02.68
Peak level 100.0 %
Extraction speed 1.4 X
Track quality 100.0 %
Test CRC E1EFE4C9
Copy CRC E1EFE4C9
Accurately ripped (confidence 19) [F547485C] (AR v2)
Copy OK
Track 3
Filename C:\New rips\Jeff Lorber - West Side Stories - 1994 (Verve Forecast 314 523 738-2) [FLAC]\03 - Iguassu Falls.wav
Pre-gap length 0:00:01.52
Peak level 100.0 %
Extraction speed 1.5 X
Track quality 100.0 %
Test CRC BB44FCFE
Copy CRC BB44FCFE
Accurately ripped (confidence 20) [47F1B399] (AR v2)
Copy OK
Track 4
Filename C:\New rips\Jeff Lorber - West Side Stories - 1994 (Verve Forecast 314 523 738-2) [FLAC]\04 - Let The River Run.wav
Pre-gap length 0:00:01.20
Peak level 100.0 %
Extraction speed 1.7 X
Track quality 100.0 %
Test CRC 1E5F0361
Copy CRC 1E5F0361
Accurately ripped (confidence 20) [E2C47B70] (AR v2)
Copy OK
Track 5
Filename C:\New rips\Jeff Lorber - West Side Stories - 1994 (Verve Forecast 314 523 738-2) [FLAC]\05 - Say Love.wav
Pre-gap length 0:00:03.05
Peak level 100.0 %
Extraction speed 1.8 X
Track quality 100.0 %
Test CRC F1F68079
Copy CRC F1F68079
Accurately ripped (confidence 22) [1E9442F8] (AR v2)
Copy OK
Track 6
Filename C:\New rips\Jeff Lorber - West Side Stories - 1994 (Verve Forecast 314 523 738-2) [FLAC]\06 - Road Song.wav
Pre-gap length 0:00:03.07
Peak level 100.0 %
Extraction speed 1.6 X
Track quality 99.9 %
Test CRC C6DBA4F9
Copy CRC C6DBA4F9
Accurately ripped (confidence 21) [73BC1436] (AR v2)
Copy OK
Track 7
Filename C:\New rips\Jeff Lorber - West Side Stories - 1994 (Verve Forecast 314 523 738-2) [FLAC]\07 - No Regrets.wav
Pre-gap length 0:00:01.60
Peak level 100.0 %
Extraction speed 2.0 X
Track quality 100.0 %
Test CRC DB1F6981
Copy CRC DB1F6981
Accurately ripped (confidence 20) [A0691305] (AR v2)
Copy OK
Track 8
Filename C:\New rips\Jeff Lorber - West Side Stories - 1994 (Verve Forecast 314 523 738-2) [FLAC]\08 - Tour's End.wav
Pre-gap length 0:00:03.40
Peak level 100.0 %
Extraction speed 2.0 X
Track quality 100.0 %
Test CRC F8312F76
Copy CRC F8312F76
Accurately ripped (confidence 21) [9DB9BFCE] (AR v2)
Copy OK
Track 9
Filename C:\New rips\Jeff Lorber - West Side Stories - 1994 (Verve Forecast 314 523 738-2) [FLAC]\09 - Tuva.wav
Pre-gap length 0:00:02.43
Peak level 100.0 %
Extraction speed 2.2 X
Track quality 100.0 %
Test CRC F6C1E8FF
Copy CRC F6C1E8FF
Accurately ripped (confidence 21) [CC6AF72C] (AR v2)
Copy OK
Track 10
Filename C:\New rips\Jeff Lorber - West Side Stories - 1994 (Verve Forecast 314 523 738-2) [FLAC]\10 - Don't Forget The Love.wav
Pre-gap length 0:00:01.27
Peak level 100.0 %
Extraction speed 2.3 X
Track quality 100.0 %
Test CRC 881D14E2
Copy CRC 881D14E2
Accurately ripped (confidence 20) [6CDF06BD] (AR v2)
Copy OK
Track 11
Filename C:\New rips\Jeff Lorber - West Side Stories - 1994 (Verve Forecast 314 523 738-2) [FLAC]\11 - Toad's Place.wav
Pre-gap length 0:00:02.15
Peak level 100.0 %
Extraction speed 2.3 X
Track quality 100.0 %
Test CRC 03811570
Copy CRC 03811570
Accurately ripped (confidence 19) [05E60BE4] (AR v2)
Copy OK
All tracks accurately ripped
No errors occurred
End of status report
==== Log checksum 4E8C9EE45682005FE2781E2D55E809DEE8F6328A626C74FDFE353C0354BB3EEB ====

Лог CUETools&#58;

[CUETools log; Date: 20.01.2021 13:27:14; Version: 2.1.5]
[CTDB TOCID: OQK2.2Wx52UzXS.boO0PxYVL8wI-] found.
Track | CTDB Status
1 | (75/79) Accurately ripped
2 | (73/79) Accurately ripped
3 | (74/79) Accurately ripped
4 | (75/79) Accurately ripped
5 | (75/79) Accurately ripped
6 | (74/79) Accurately ripped
7 | (75/79) Accurately ripped
8 | (75/79) Accurately ripped
9 | (75/79) Accurately ripped
10 | (74/79) Accurately ripped
11 | (75/79) Accurately ripped
[AccurateRip ID: 0014e8b2-00b54541-9c0bc30b] found.
Track [ CRC | V2 ] Status
01 [f60cd38a|a94df132] (15+32/57) Accurately ripped
02 [57b39534|f547485c] (15+30/56) Accurately ripped
03 [3edbcc0a|47f1b399] (15+31/57) Accurately ripped
04 [627ba224|e2c47b70] (15+31/57) Accurately ripped
05 [e90b20f3|1e9442f8] (16+33/60) Accurately ripped
06 [b6bb43bb|73bc1436] (15+32/57) Accurately ripped
07 [5692fce4|a0691305] (15+31/56) Accurately ripped
08 [c5369722|9db9bfce] (15+32/58) Accurately ripped
09 [527dceb6|cc6af72c] (15+32/58) Accurately ripped
10 [15cfe2b3|6cdf06bd] (15+31/56) Accurately ripped
11 [d76c015b|05e60be4] (15+30/55) Accurately ripped
Offsetted by -356:
01 [d3dafd2a] (03/57) Accurately ripped
02 [c9532124] (04/56) Accurately ripped
03 [56aa39cd] (04/57) Accurately ripped
04 [6d7ba34e] (04/57) Accurately ripped
05 [f21eb97b] (04/60) Accurately ripped
06 [b21c5074] (03/57) Accurately ripped
07 [eea54e15] (03/56) Accurately ripped
08 [46332ff5] (04/58) Accurately ripped
09 [17c2cc39] (04/58) Accurately ripped
10 [dbd3d136] (03/56) Accurately ripped
11 [111f2b1e] (03/55) Accurately ripped
Track Peak [ CRC32 ] [W/O NULL] [ LOG ]
-- 100,0 [9BC3F53C] [D8905EF1]
01 100,0 [9A11827A] [C8A9AAB1] CRC32
02 100,0 [E1EFE4C9] [EE0D4EA3] CRC32
03 100,0 [BB44FCFE] [3CC6C180] CRC32
04 100,0 [1E5F0361] [98127E2E] CRC32
05 100,0 [F1F68079] [F5549A69] CRC32
06 100,0 [C6DBA4F9] [491FC90D] CRC32
07 100,0 [DB1F6981] [68B798F5] CRC32
08 100,0 [F8312F76] [EF2C4E10] CRC32
09 100,0 [F6C1E8FF] [F0A50208] CRC32
10 100,0 [881D14E2] [A76CC00E] CRC32
11 100,0 [03811570] [D0F291BC] CRC32
Время раздачи: 24/7 (круглосуточно) (до появления первых 3-5 скачавших)
Other forum [Profile] [PM]
Display posts from previous:    
Reply to topic

The time now is: Today 17:22

All times are GMT + 3 Hours



You cannot post new topics in this forum
You cannot reply to topics in this forum
You cannot edit your posts in this forum
You cannot delete your posts in this forum
You cannot vote in polls in this forum
You cannot attach files in this forum
You cannot download files in this forum