Сегодня идет свободное скачивание без начисления Download

Джеймс Бонд 007: Живешь только дважды / James Bond 007: You Only Live Twice (1967)720p BDRip

Ответить на тему
 
Автор
Сообщение

Koralina ®

Стаж: 6 лет 1 месяц

Сообщений: 1191

Откуда: Lithuania

Торрент-статистика

Пост 07-Ноя-2012 13:11

[Цитировать]

Джеймс Бонд 007: Живешь только дважды / James Bond 007: You Only Live Twice (1967)720p BDRip-
Русское название: Джеймс Бонд 007: Живешь только дважды
Оригинальное название: James Bond 007: You Only Live Twice
Год выпуска: 1967
Жанр: Приключения, Фантастика, Боевик
Описание фильма:
Коварство злодеев из международной преступной организации СПЕКТР не знает границ. На этот раз враги человечества пытаются поссорить самые могущественные государства мира и тем самым спровоцировать начало ядерной войны. До полного уничтожения жизни на Земле остаются считанные мгновения. В такой ситуации запаникует кто угодно, но только не Джеймс Бонд. Не теряя достоинства и обаяния, он всегда достигает необходимого результата. На этот раз события разворачиваются в Японии, а значит, приключения с кровожадными ниндзями и экзотичными гейшами обеспечены...
Режиссер: Льюис Гилберт
Актеры: Шон Коннери (James Bond), Акико Вакабаяси (Aki), Миэ Хама (Kissy Suzuki), Тэцуро Тамба (Tiger Tanaka), Тэру Симада (Mr. Osato), Карин Дор (Helga Brandt), Дональд Плезенс (Ernst Stavro Blofeld), Бернард Ли (M), Лоис Максуэлл (Miss Moneypenny), Дезмонд Льюэлин (Q), Чарльз Грей (Dikko Henderson), Цай Чинь (Ling, Chinese Girl in Hong Kong)
Продолжительность: 01:56:58
Перевод: Дублированный
Вид субтитров: Вшитые английские, русские

Видеокодек: MPEG-4 AVC/H.264
Битрейт видео: ~8100 Кбит/сек
Размер кадра: 1280x544
Качество видео: BDRip
Аудиокодек: DTS
Битрейт аудио:
1. Audio 1: DTS 6 сh 768 Кбит/сек - русский
2. Audio 2: DTS 6 ch 1509 Кбит/сек- английский

MediaInfo:

Общее
Уникальный идентификатор : 204201688280459025034129606728868472750 (0x999FD08AA22082438C7F02A47E9CA7AE)
Полное имя : G:\new 092012\!102\Живешь только дважды BDRip 720p\You_Only_Live_Twice 1967 720p.mkv
Формат : Matroska
Версия формата : Version 2
Размер файла : 8,48 Гбайт
Продолжительность : 1 ч. 56 м.
Общий поток : 10,4 Мбит/сек
Дата кодирования : UTC 2012-10-24 11:03:17
Программа кодирования : mkvmerge v5.8.0 ('No Sleep / Pillow') built on Sep 2 2012 15:37:04
Библиотека кодирования : libebml v1.2.3 + libmatroska v1.3.0
Видео
Идентификатор : 1
Формат : AVC
Формат/Информация : Advanced Video Codec
Профиль формата : [url=mailto:[email protected]][email protected][/url]
Параметр CABAC формата : Да
Параметр ReFrames формата : 6 кадров
Идентификатор кодека : V_MPEG4/ISO/AVC
Продолжительность : 1 ч. 56 м.
Битрейт : 8100 Кбит/сек
Ширина : 1280 пикселей
Высота : 544 пикселя
Соотношение сторон : 2,35:1
Режим частоты кадров : Постоянный
Частота кадров : 23,976 кадра/сек
Цветовое пространство : YUV
Субдискретизация насыщенности : 4:2:0
Битовая глубина : 8 бит
Тип развёртки : Прогрессивная
Бит/(Пиксели*Кадры) : 0.485
Размер потока : 6,45 Гбайт (76%)
Библиотека кодирования : x264 core 128 r2216 198a7ea
Настройки программы : cabac=1 / ref=6 / deblock=1:-3:-3 / analyse=0x3:0x113 / me=tesa / subme=10 / psy=1 / psy_rd=1.00:0.00 / mixed_ref=1 / me_range=32 / chroma_me=1 / trellis=2 / 8x8dct=1 / cqm=0 / deadzone=21,11 / fast_pskip=0 / chroma_qp_offset=-2 / threads=12 / lookahead_threads=2 / sliced_threads=0 / nr=0 / decimate=0 / interlaced=0 / bluray_compat=0 / constrained_intra=0 / bframes=7 / b_pyramid=2 / b_adapt=2 / b_bias=0 / direct=3 / weightb=1 / open_gop=0 / weightp=2 / keyint=250 / keyint_min=23 / scenecut=40 / intra_refresh=0 / rc=2pass / mbtree=0 / bitrate=8100 / ratetol=1.0 / qcomp=0.60 / qpmin=0 / qpmax=69 / qpstep=4 / cplxblur=20.0 / qblur=0.5 / ip_ratio=1.40 / pb_ratio=1.30 / aq=1:0.80
Язык : English
Default : Да
Forced : Нет
Аудио #1
Идентификатор : 2
Формат : DTS
Формат/Информация : Digital Theater Systems
Режим : 16
Параметр Endianness формата : Big
Идентификатор кодека : A_DTS
Продолжительность : 1 ч. 56 м.
Вид битрейта : Постоянный
Битрейт : 768 Кбит/сек
Каналы : 6 каналов
Расположение каналов : Front: L C R, Side: L R, LFE
Частота : 48,0 КГц
Битовая глубина : 24 бит
Метод сжатия : С потерями
Размер потока : 643 Мбайт (7%)
Язык : Russian
Default : Да
Forced : Нет
Аудио #2
Идентификатор : 3
Формат : DTS
Формат/Информация : Digital Theater Systems
Режим : 16
Параметр Endianness формата : Big
Идентификатор кодека : A_DTS
Продолжительность : 1 ч. 56 м.
Вид битрейта : Постоянный
Битрейт : 1509 Кбит/сек
Каналы : 6 каналов
Расположение каналов : Front: L C R, Side: L R, LFE
Частота : 48,0 КГц
Битовая глубина : 24 бит
Метод сжатия : С потерями
Размер потока : 1,23 Гбайт (15%)
Язык : English
Default : Нет
Forced : Нет
Текст #1
Идентификатор : 4
Формат : UTF-8
Идентификатор кодека : S_TEXT/UTF8
Идентификатор кодека/Информация : UTF-8 Plain Text
Язык : Russian
Default : Нет
Forced : Нет
Текст #2
Идентификатор : 5
Формат : UTF-8
Идентификатор кодека : S_TEXT/UTF8
Идентификатор кодека/Информация : UTF-8 Plain Text
Язык : Russian
Default : Нет
Forced : Нет
Текст #3
Идентификатор : 6
Формат : UTF-8
Идентификатор кодека : S_TEXT/UTF8
Идентификатор кодека/Информация : UTF-8 Plain Text
Язык : English
Default : Нет
Forced : Нет
Меню
00:00:00.000 : en:Chapter 01
00:05:02.093 : en:Chapter 03
00:06:10.536 : en:Chapter 05
00:08:54.075 : en:Chapter 07
00:11:49.375 : en:Chapter 09
00:15:23.088 : en:Chapter 11
00:19:25.914 : en:Chapter 13
00:24:18.915 : en:Chapter 15
00:28:19.656 : en:Chapter 17
00:31:28.720 : en:Chapter 19
00:33:09.112 : en:Chapter 21
00:36:14.589 : en:Chapter 23
00:40:48.070 : en:Chapter 25
00:44:17.821 : en:Chapter 27
00:46:59.817 : en:Chapter 29
00:51:13.779 : en:Chapter 31
00:54:37.274 : en:Chapter 33
00:58:58.701 : en:Chapter 35
01:03:27.845 : en:Chapter 37
01:09:01.971 : en:Chapter 39
01:12:26.717 : en:Chapter 41
01:14:07.067 : en:Chapter 43
01:17:33.649 : en:Chapter 45
01:20:25.904 : en:Chapter 47
01:24:25.685 : en:Chapter 49
01:28:42.734 : en:Chapter 51
01:34:54.647 : en:Chapter 53
01:35:49.994 : en:Chapter 55
01:38:13.178 : en:Chapter 57
01:44:26.301 : en:Chapter 59
01:48:19.534 : en:Chapter 61
01:53:25.507 : en:Chapter 63
01:56:58.011 : en:Chapter 64
Скриншоты:
         
         

_________________
Вне форума [Профиль] [ЛС]
Похожие темы
Форум Тема Автор Торрент Отв. Посл. сообщение
./templates/default/images/folder_dl.gif Зарубежное кино Атлант расправил плечи: Часть 3 / Atlas Shrugged Part III: Who is John Galt? (Джеймс Манера / James Manera) [2014, США, Фантастика, драма, детектив, BDRip 720p] DVO (DeadSno & den904) + Original (Eng) + Sub Rus Omen
1 | 0

0 | 316

1

2015-12-04 03:51
Omen Последнее
./templates/default/images/folder_dl.gif Фантастика, фэнтези, ужасы, мистика Джеймс Роллинс | Костяной лабиринт (2016) [FB2] moralis
1 | 0

0 | 389

6

2016-03-20 22:43
moralis Последнее
./templates/default/images/folder_dl.gif Новинки (HD|DVD|BD|WEB|TV|SAT|PDTV|-Rip) Алиса в Зазеркалье / Alice Through the Looking Glass (Джеймс Бобин) [2016, Фэнтези, Приключения, Семейный, WEB-DLRip] [Line] Russian Mafia
1 | 0

0 | 1022

16

2016-09-17 18:27
Russian Mafia Последнее
./templates/default/images/folder_dl.gif Фантастика, фэнтези, ужасы, мистика Грант Блэквуд, Джеймс Роллинс | Ястребы войны (2016) [FB2] }{@R0N
1 | 0

0 | 594

7

2016-10-22 15:40
}{@R0N Последнее
./templates/default/images/folder_dl.gif Фантастика, фэнтези, ужасы, мистика Джеймс Роллинс | Седьмая казнь (2017) [FB2] }{@R0N
1 | 0

0 | 6747

7

2017-04-08 20:52
}{@R0N Последнее
./templates/default/images/folder_dl.gif Новинки (HD|DVD|BD|WEB|TV|SAT|PDTV|-Rip) Логан / Logan (Джеймс Мэнголд) [2017, фантастика, боевик, триллер, драма, WEBRip] L Theseus
1 | 0

0 | 5593

29

2017-04-17 22:37
Theseus Последнее
./templates/default/images/folder_dl.gif Новинки (HD|DVD|BD|WEB|TV|SAT|PDTV|-Rip) Логан / Logan (Джеймс Мэнголд) [2017, фантастика, боевик, триллер, драма, BDRip-AVC] DUB | Лицензия Theseus
1 | 0

0 | 3879

5

2017-06-29 21:44
Theseus Последнее
./templates/default/images/folder_dl.gif Новинки (CamRip|TS) Стражи Галактики. Часть 2 / Guardians of the Galaxy Vol. 2 (Джеймс Ганн) [2017, фантастика, боевик, приключения, TS 1080p] DUB | Чистый звук Theseus
1 | 0

0 | 7847

7

2017-08-02 22:17
Theseus Последнее
Показать сообщения:    
Ответить на тему

Текущее время: Сегодня 15:11

Часовой пояс: GMT + 3



Вы не можете начинать темы
Вы не можете отвечать на сообщения
Вы не можете редактировать свои сообщения
Вы не можете удалять свои сообщения
Вы не можете голосовать в опросах
Вы не можете прикреплять файлы к сообщениям
Вы не можете скачивать файлы