Сегодня идет свободное скачивание без начисления Download

Работа для стрелка / Invitation to a Gunfighter (1964) DVDRip

Ответить на тему
 
Автор
Сообщение

Koralina ®

Стаж: 6 лет 8 месяцев

Сообщений: 1078

Откуда: Lithuania

Торрент-статистика

Пост 07-Ноя-2012 13:14

[Цитировать]

Работа для стрелка / Invitation to a Gunfighter (1964) DVDRip-
Русское название: Работа для стрелка
Оригинальное название: Invitation to a Gunfighter
Год выпуска: 1964
Жанр: Вестерн
Страна: США
Описание фильма:
Действие фильма относится к 1865г., времени окончания Гражданской Войны. Вернувшийся с войны Мэт Вивор узнает, что его мать умерла, а его ферма находится в собственности другого человека. Разговор с новым владельцем не получился и Мэт в честном поединке убивает его. Чтобы избавиться от Мэта, жители городка принимают решение нанять профессионального стрелка по имени Жюль Гаспар Д'Эстейн (Юл Бриннер). Французкое имя не должно вводить в заблуждение, Жюль - креол из Нового Орлеана. Он соглашается выполнить работу за 500 долларов. Но почему-то не спешит. Разгадка кроется в ключевой сцене фильма - встречей Жюля и Мэта и их объяснением. Жюля, в первую очередь, интересует вопрос почему Мэт воевал за южан. Почему он воевал за рабство? Он - рабовладелец? Нет, - отвечает Видор, - настоящий рабовладелец Сэм Брюстер, человек, которому принадлежит все в этом городе, и дома, и магазины, и люди. Рабом не обязательно может быть только человек с черной кожей, рабство имеет самые разные формы, в том числе и экономическую. Сэм Брюстер нажился на кровавой войне и продолжает крутить свои грязные делишки. После этого разговора зрителю становится понятно, что Жюль не просто циничный наемный убийца...
Режиссер: Ричард Уилсон / Richard Wilson
Актеры: Юл Бриннер, Дженис Рул, Джордж Сигал, Альфред Райдер, Клиффорд Дэвид, Майк Келлин, Брэд Декстер, Пэт Хингл, Берт Фрид, Джон А. Алонсо
Продолжительность: 01:28:57
Перевод: Профессиональный (многоголосый закадровый) + Авторский (одноголосый закадровый - Кузнецов)

Дата мировой премьеры: 14 октября 1964
Видеокодек: Xvid
Битрейт видео: ~1 850 Kbps
Размер кадра: 688х416
Качество видео: DVDRip
Аудиокодек: AC3 2 ch
Аудио 1: AC3, 2 ch, 192 Kbps, 48.0 KHz (русский, MVO, Петербург, 5-й канал)
Аудио 2: AC3, 2 ch, 192 Kbps, 48.0 KHz (русский, AVO, Сергей Кузнецов)
Аудио 3: AC3, 2 ch, 192 Kbps, 48.0 KHz (английский)
Сэмпл: Ссылка
Исходник DVD5,PAL 4:3 (720x576) VBR

Медиаинфо

Format : AVI
Format/Info : Audio Video Interleave
File size : 1.52 GiB
Duration : 1h 28mn
Overall bit rate : 2 445 Kbps
Director : CrimeanFox
Writing application : VirtualDubMod 1.5.10.2 (build 2540/release)
Writing library : VirtualDubMod build 2540/release
Video
ID : 0
Format : MPEG-4 Visual
Format profile : Advanced [email protected]
Format settings, BVOP : 2
Format settings, QPel : No
Format settings, GMC : No warppoints
Format settings, Matrix : Default (MPEG)
Codec ID : XVID
Codec ID/Hint : XviD
Duration : 1h 28mn
Bit rate : 1 850 Kbps
Width : 688 pixels
Height : 416 pixels
Display aspect ratio : 1.654
Frame rate : 25.000 fps
Color space : YUV
Chroma subsampling : 4:2:0
Bit depth : 8 bits
Scan type : Progressive
Compression mode : Lossy
Bits/(Pixel*Frame) : 0.259
Stream size : 1.15 GiB (76%)
Writing library : XviD 65
Audio #1
ID : 1
Format : AC-3
Format/Info : Audio Coding 3
Format profile : Dolby Digital
Mode extension : CM (complete main)
Format settings, Endianness : Big
Codec ID : 2000
Duration : 1h 28mn
Bit rate mode : Constant
Bit rate : 192 Kbps
Channel(s) : 2 channels
Channel positions : Front: L R
Sampling rate : 48.0 KHz
Bit depth : 16 bits
Compression mode : Lossy
Stream size : 122 MiB (8%)
Alignment : Split accross interleaves
Interleave, duration : 40 ms (1.00 video frame)
Interleave, preload duration : 500 ms
Audio #2
ID : 2
Format : AC-3
Format/Info : Audio Coding 3
Format profile : Dolby Digital
Mode extension : CM (complete main)
Format settings, Endianness : Big
Codec ID : 2000
Duration : 1h 28mn
Bit rate mode : Constant
Bit rate : 192 Kbps
Channel(s) : 2 channels
Channel positions : Front: L R
Sampling rate : 48.0 KHz
Bit depth : 16 bits
Compression mode : Lossy
Stream size : 122 MiB (8%)
Alignment : Split accross interleaves
Interleave, duration : 40 ms (1.00 video frame)
Interleave, preload duration : 500 ms
Audio #3
ID : 3
Format : AC-3
Format/Info : Audio Coding 3
Mode extension : CM (complete main)
Format settings, Endianness : Big
Codec ID : 2000
Duration : 1h 28mn
Bit rate mode : Constant
Bit rate : 192 Kbps
Channel(s) : 2 channels
Channel positions : Front: L R
Sampling rate : 48.0 KHz
Bit depth : 16 bits
Compression mode : Lossy
Stream size : 122 MiB (8%)
Alignment : Split accross interleaves
Interleave, duration : 40 ms (1.00 video frame)
Interleave, preload duration : 500 ms
Скриншоты:
         
         

_________________
Вне форума [Профиль] [ЛС]
Похожие темы
Форум Тема Автор Торрент Отв. Посл. сообщение
./templates/default/images/folder_sticky.gif Системы для бизнеса Infostart / Разработоки инфостарт 5500  [ПерейтиСтр. 1, 2 ] Varius
4 | 0

22 | 36886

1861

2016-01-11 21:55
igorigor7 Последнее
./templates/default/images/folder_dl.gif Обучающее видео Александр Свет | Профессиональная обработка RAW в Capture One Pro 7 (2013) [PCRec] UndegraundMen
1 | 0

0 | 2642

48

2013-11-28 23:01
UndegraundMen Последнее
./templates/default/images/folder_dl.gif Обучающее видео Дарья Булавина | Работа со светом в студии, дома и на улице (2013) [PCRec] Varius
1 | 0

0 | 1123

22

2014-01-29 19:34
Varius Последнее
./templates/default/images/folder_dl.gif Обучающее видео [Highlight School] Маргарита Карева | Сказочная обработка в Photoshop (2014) PCRec Omen
1 | 0

0 | 5864

127

2015-01-08 23:43
Omen Последнее
./templates/default/images/folder_dl.gif Обучающее видео Учебный центр 1C | Разработка мобильных приложений в системе 1С Предприятие 8.3 (2015) PCRec [H.264] Varius
1 | 0

0 | 1517

67

2015-07-08 23:14
Varius Последнее
./templates/default/images/folder_dl.gif Обучающее видео Java Course | Java EE. Профессиональная разработка (2015) PCRec [H.264/720p] Omen
2 | 0

0 | 1042

80

2015-10-12 00:59
Omen Последнее
./templates/default/images/folder_dl.gif Обучающее видео United Traders | Обучение заработку на фондовой бирже для начинающих (2014) PCRec [H.264/720p] moralis
1 | 0

0 | 449

13

2016-02-28 13:28
moralis Последнее
./templates/default/images/folder_sticky.gif Консультант Плюс Консультант Плюс. Оболочка для работы. Evolution 2016 v1.2 Alek(@ndr
6 | 0

1 | 14992

569

2016-04-24 00:39
Alek(@ndr Последнее
./templates/default/images/folder_dl.gif Обучающее видео Нетология | JavaScript-разработка. Создаем интерактивные веб-страницы (2016) PCRec moralis
1 | 0

1 | 1714

19

2016-12-07 05:16
almighty937 Последнее
./templates/default/images/folder_dl.gif Обучающее видео Елена Астафурова | Курс обработки фотографии. Стань мастером Adobe Photoshop и Lightroom (2016) PCRec XP1971
1 | 0

3 | 2328

41

2016-12-27 00:42
almighty937 Последнее
Показать сообщения:    
Ответить на тему

Текущее время: Сегодня 16:09

Часовой пояс: GMT + 3



Вы не можете начинать темы
Вы не можете отвечать на сообщения
Вы не можете редактировать свои сообщения
Вы не можете удалять свои сообщения
Вы не можете голосовать в опросах
Вы не можете прикреплять файлы к сообщениям
Вы не можете скачивать файлы