Today is a free download without charge Download

Boy Rekless - Like Damn (2012) [H.264/720р] WEBRip

Reply to topic
 
Author
Message

Koralina ®

Longevity: 7 years 8 months

Posts: 994

Location: Lithuania

Торрент-статистика

Post 07-Nov-2012 20:42

[Quote]

Boy Rekless - Like Damn (2012) [H.264/720р] WEBRip-
Год выхода : 2012
Исполнитель : Boy Rekless
Название : Like Damn
Продолжительность : 00:04:54
Жанр : Dance
Видеокодек: MPEG4 Video (AVC)
Битрейт видео: 2 451 Kbps
Размер кадра: 1280x720
Качество видео: WEBRip
Аудиокодек: AAC
Битрейт аудио: 192 Kbps 2 channels

MediaInfo:

General
Format : MPEG-4
Format profile : Base Media / Version 2
Codec ID : mp42
File size : 93.0 MiB
Duration : 4mn 54s
Overall bit rate : 2 645 Kbps
Encoded date : UTC 2012-11-01 17:16:12
Tagged date : UTC 2012-11-01 17:16:12
Video
ID : 1
Format : AVC
Format/Info : Advanced Video Codec
Format profile : [email protected]
Format settings, CABAC : Yes
Format settings, ReFrames : 1 frame
Codec ID : avc1
Codec ID/Info : Advanced Video Coding
Duration : 4mn 54s
Bit rate mode : Variable
Bit rate : 2 451 Kbps
Maximum bit rate : 13.1 Mbps
Width : 1 280 pixels
Height : 720 pixels
Display aspect ratio : 16:9
Frame rate mode : Constant
Frame rate : 23.976 fps
Color space : YUV
Chroma subsampling : 4:2:0
Bit depth : 8 bits
Scan type : Progressive
Bits/(Pixel*Frame) : 0.111
Stream size : 86.2 MiB (93%)
Tagged date : UTC 2012-11-01 17:16:12
Audio
ID : 2
Format : AAC
Format/Info : Advanced Audio Codec
Format profile : LC
Codec ID : 40
Duration : 4mn 54s
Bit rate mode : Variable
Bit rate : 192 Kbps
Maximum bit rate : 201 Kbps
Channel(s) : 2 channels
Channel positions : Front: L R
Sampling rate : 44.1 KHz
Compression mode : Lossy
Stream size : 6.75 MiB (7%)
Title : IsoMedia File Produced by Google, 5-11-2011
Encoded date : UTC 2012-11-01 17:16:12
Tagged date : UTC 2012-11-01 17:16:12
-Скриншоты:-          

_________________
Other forum [Profile] [PM]
Display posts from previous:    
Reply to topic

The time now is: Today 04:50

All times are GMT + 3 Hours



You cannot post new topics in this forum
You cannot reply to topics in this forum
You cannot edit your posts in this forum
You cannot delete your posts in this forum
You cannot vote in polls in this forum
You cannot attach files in this forum
You cannot download files in this forum