Сегодня идет свободное скачивание без начисления Download

Спящие / Sleepers (Барри Левинсон) [1996 г., триллер, драма, криминал, BDRip 1080p]

Ответить на тему
 
Автор
Сообщение

Delia ®

Пол:

Стаж: 6 лет 7 месяцев

Сообщений: 1930

Торрент-статистика

Пост 21-Мар-2011 21:54

[Цитировать]

СпящиеSleepers Год выпуска: 1996
Страна: США
Жанр: триллер, драма, криминал
Продолжительность: 147 мин.
Перевод: Профессиональный (многоголосый, закадровый)
Режиссер: Барри Левинсон
Продюссер: Лоренцо Каркатерра, Питер Джулиано, Стив Голин
Сценарий: Лоренцо Каркатерра, Барри Левинсон
Бюджет: $44 000 000
Премьера в мире: 18 октября 1996
В ролях: Кевин Бейкон, Билли Крудап, Роберт Де Ниро, Витторио Гассман, Минни Драйвер, Дастин Хоффман, Рон Элдард, Брэд Питт, Джозеф Перрино, Джейсон Патрик
Описание: В шестидесятые годы нью-йоркский квартал «адская кухня» был местом, где правили священники и мафиози, невинность и жестокость. Здесь росли четыре друга, беззаботное детство которых было прервано шалостью, обернувшейся страшной бедой, толкнувшей их во взрослый мир насилия и подлости.Прошло полтора десятилетия, но ужасные воспоминания о прошлом все еще живы, и теперь уроки, усвоенные в «адской кухне», помогут им свести счеты с судьбой, которая обошлась с ними столь сурово...
Качество: BDRip 1080p
Формат: MKV
Видео кодек: H.264
Аудио кодек: AC3
Видео: English, 3611 Кбит/сек, 1920*816 (2,35:1), в 23,976 кадр/сек, AVC
Аудио: Russian, 320 Кбит/сек, 48,0 КГц, 16 бит, 6 канала(ов), AC-3
Аудио:English, 320 Кбит/сек, 48,0 КГц, 16 бит, 6 канала(ов), AC-3
Субтитры:English- VobSub

Media Info:

Общее
Уникальный идентификатор : 182832452666458249762972882095093555557 (0x898C3FE1D3ED5F8384917E60C9ABA165)
Полное имя : E:\торрент\Sleepers (1996)BDRip 1080p .mkv
Формат : Matroska
Размер файла : 4,38 Гбайт
Продолжительность : 2 ч. 27 м.
Общий поток : 4258 Кбит/сек
Дата кодирования : UTC 2011-03-21 17:45:41
Программа кодирования : mkvmerge v4.6.0 ('Still Crazy After All These Years') built on Mar 10 2011 02:50:32
Библиотека кодирования : libebml v1.2.0 + libmatroska v1.1.0
Видео
Идентификатор : 1
Формат : AVC
Формат/Информация : Advanced Video Codec
Профиль формата : [email protected]
Параметр CABAC формата : Да
Параметр ReFrames формата : 12 кадры
Идентификатор кодека : V_MPEG4/ISO/AVC
Продолжительность : 2 ч. 27 м.
Битрейт : 3611 Кбит/сек
Ширина : 1920 пикс.
Высота : 816 пикс.
Соотношение сторон : 2,35:1
Частота кадров : 23,976 кадр/сек
Цветовое пространство : YUV
Подвыборка цветности : 4:2:0
Битовая глубина : 8 бит
Тип развёртки : Прогрессивная
Бит/(Пиксели*Кадры) : 0.096
Размер потока : 3,63 Гбайт (83%)
Заголовок : /*spam*/
Библиотека кодирования : x264 core 114 r1913 5fd3dce
Настройки программы : cabac=1 / ref=12 / deblock=1:-3:-3 / analyse=0x3:0x133 / me=umh / subme=7 / psy=1 / psy_rd=1.00:0.15 / mixed_ref=1 / me_range=32 / chroma_me=1 / trellis=2 / 8x8dct=1 / cqm=0 / deadzone=21,11 / fast_pskip=0 / chroma_qp_offset=-3 / threads=6 / sliced_threads=0 / nr=0 / decimate=1 / interlaced=0 / constrained_intra=0 / bframes=6 / b_pyramid=2 / b_adapt=1 / b_bias=0 / direct=1 / weightb=1 / open_gop=0 / weightp=2 / keyint=250 / keyint_min=24 / scenecut=40 / intra_refresh=0 / rc_lookahead=40 / rc=2pass / mbtree=1 / bitrate=3611 / ratetol=1.0 / qcomp=0.60 / qpmin=5 / qpmax=51 / qpstep=4 / cplxblur=20.0 / qblur=0.5 / ip_ratio=1.40 / aq=1:1.00
Язык : English
Аудио #1
Идентификатор : 2
Формат : AC-3
Формат/Информация : Audio Coding 3
Расширение режима : CM (complete main)
Идентификатор кодека : A_AC3
Продолжительность : 2 ч. 27 м.
Вид битрейта : Постоянный
Битрейт : 320 Кбит/сек
Канал(ы) : 6 канала(ов)
Расположение каналов : Front: L C R, Side: L R, LFE
Частота : 48,0 КГц
Битовая глубина : 16 бит
Метод сжатия : С потерями
Размер потока : 337 Мбайт (8%)
Язык : Russian
Аудио #2
Идентификатор : 3
Формат : AC-3
Формат/Информация : Audio Coding 3
Расширение режима : CM (complete main)
Идентификатор кодека : A_AC3
Продолжительность : 2 ч. 27 м.
Вид битрейта : Постоянный
Битрейт : 320 Кбит/сек
Канал(ы) : 6 канала(ов)
Расположение каналов : Front: L C R, Side: L R, LFE
Частота : 48,0 КГц
Битовая глубина : 16 бит
Метод сжатия : С потерями
Размер потока : 337 Мбайт (8%)
Язык : English
Текст
Идентификатор : 4
Формат : VobSub
Режим смешивания : zlib
Идентификатор кодека : S_VOBSUB
Идентификатор кодека/Информация : The same subtitle format used on DVDs
Язык : English
Меню
00:00:00.000 : en:00:00:00.000
00:08:42.522 : en:00:08:42.522
00:16:53.346 : en:00:16:53.346
00:21:21.447 : en:00:21:21.447
00:26:34.092 : en:00:26:34.092
00:32:32.117 : en:00:32:32.117
00:40:59.165 : en:00:40:59.165
00:50:24.021 : en:00:50:24.021
00:59:35.572 : en:00:59:35.572
01:08:22.098 : en:01:08:22.098
01:15:19.640 : en:01:15:19.640
01:26:17.339 : en:01:26:17.339
01:36:47.969 : en:01:36:47.969
01:44:20.171 : en:01:44:20.171
01:53:28.218 : en:01:53:28.218
02:04:12.195 : en:02:04:12.195
02:14:03.035 : en:02:14:03.035
02:23:02.908 : en:02:23:02.908

Скриншоты

        

_________________
Человек – это канат, натянутый между животным и сверхчеловеком, – канат над пропастью.
В человеке ценно то, что он мост, а не цель. Фридрих Ницше


Последний раз редактировалось: Delia (2011-08-26 00:10), всего редактировалось 1 раз
Вне форума [Профиль] [ЛС]
Показать сообщения:    
Ответить на тему

Текущее время: Сегодня 20:24

Часовой пояс: GMT + 3



Вы не можете начинать темы
Вы не можете отвечать на сообщения
Вы не можете редактировать свои сообщения
Вы не можете удалять свои сообщения
Вы не можете голосовать в опросах
Вы не можете прикреплять файлы к сообщениям
Вы не можете скачивать файлы