Сегодня идет свободное скачивание без начисления Download

Диверсант / Saboteur (Альфред Хичкок) [1942, Триллер, Детектив 720p, BDRip]

Ответить на тему
 
Автор
Сообщение

Meshanik ®

Пол:

Стаж: 4 года 6 месяцев

Сообщений: 5580

Откуда: Los Angeles

Торрент-статистика

Пост 12-Ноя-2012 06:55

[Цитировать]

Диверсант / Saboteur
-«You'd like to say - IT CAN'T HAPPEN HERE!... but every jolting scene is TRUE!!» - «Alfred Hitchcock Blu-ray Collection» - Русское название: Диверсант
Оригинальное название: Saboteur
Страна: США
Год выпуска: 1942
Жанр: триллер, детектив
Продолжительность: 01:48:48
Перевод: Дублированный, Многоголосый закадровый, Одноголосый закадровый
Субтитры: Английский, Русский (BD, forced, SomeWax)-Режиссер: Альфред Хичкок
В ролях: Присцилла Лэйн, Роберт Каммингс, Отто Крюгер, Алан Бакстер, Клем Беванс, Норман Ллойд, Альма Крюгер, Вон Глейсер, Дороти Петерсон, Йен Вульф-Описание фильма:
Несмотря на пропагандистскую окраску фильма, обусловленную временем, когда он снимался, эта замечательная хичкоковская история о человеке, ошибочно обвиненном в диверсии, и который пересекает половину страны, чтобы найти настоящих преступников.-
Рейтинг MPAA: PG 13– лицам до 13 лет обязательное присутствие родителей!!!-Дата мировой премьеры: 22 апреля 1942-Качество видео: BDRip
Видеокодек: MPEG-4 AVC
Битрейт видео: ~8037 kbps
Размер кадра: 978x720
Аудио:
1. DTS Русский 2.0 / 48 kHz / 448 kbps / 24-bit (Дублированный)
2. Dolby Digital Русский 2.0 / 48 kHz / 192 kbps (Многоголосый закадровый, SomeWax)
3. Dolby Digital Русский 2.0 / 48 kHz / 192 kbps (Многоголосый закадровый, DVD Магия)
4. Dolby Digital Русский 2.0 / 48 kHz / 192 kbps (Многоголосый закадровый, ТВЦ)
5. FLAC Русский 2.0 / 48 kHz / 629 kbps / 24-bit (Одноголосый закадровый, С.Рябов)
6. FLAC Русский 2.0 / 48 kHz / 628 kbps / 24-bit (Одноголосый закадровый, Л.Машинский)
7. FLAC Английский 2.0 / 48 kHz / 566 kbps / 24-bit
-

Знаете ли вы, что...

• Режиссер Альфред Хичкок предполагал взять на главные роли Гари Купера и Барбару Стэнуик, однако в итоге они достались Роберту Камминнгсу и Присцилле Лэйн.
• В кадре с перевернутым судном фигурирует корабль «Нормандия», который стал жертвой акта саботажа во время Второй мировой войны. Правда, эту диверсию совершили не нацисты (как в фильме), а местные гангстеры, которые надеялись таким образом заставить правительство заплатить им за защиту от нацистских саботажников. Несмотря на то что руководство Военно-морских сил настаивало на том, чтобы Хичкок вырезал этот кадр, режиссер отказался это сделать.
• Хичкок появился в этой картине в фирменном эпизоде-камео, сыграв человека у газетного киоска.

MediaInfo

General
Complete name : F:\Saboteur.1942.720p.BluRay.6xRus.Eng.HDCLUB.mkv
Format : Matroska
File size : 8.27 GiB
Duration : 1h 48mn
Overall bit rate : 10.9 Mbps
Encoded date : UTC 2012-11-08 17:46:39
Writing application : mkvmerge v4.9.1 ('Ich will') сборка от Jul 11 2011 23:53:15
Writing library : libebml v1.2.1 + libmatroska v1.1.1
Video
ID : 1
Format : AVC
Format/Info : Advanced Video Codec
Format profile : [url=mailto:[email protected]][email protected][/url]
Format settings, CABAC : Yes
Format settings, ReFrames : 11 frames
Muxing mode : Container [email protected]
Codec ID : V_MPEG4/ISO/AVC
Duration : 1h 48mn
Width : 978 pixels
Height : 720 pixels
Display aspect ratio : 4:3
Frame rate : 23.976 fps
Color space : YUV
Chroma subsampling : 4:2:0
Bit depth : 8 bits
Scan type : Progressive
Title : Saboteur 1942 720p BluRay AAC 2.0 x264-DON
Writing library : x264 core 128 r2216kMod 198a7ea
Encoding settings : cabac=1 / ref=11 / deblock=1:-3:-3 / analyse=0x3:0x133 / me=umh / subme=10 / psy=1 / fade_compensate=0.00 / psy_rd=0.90:0.10 / mixed_ref=1 / me_range=32 / chroma_me=0 / trellis=2 / 8x8dct=1 / cqm=0 / deadzone=21,11 / fast_pskip=0 / chroma_qp_offset=-3 / threads=6 / lookahead_threads=1 / sliced_threads=0 / nr=0 / decimate=0 / interlaced=0 / bluray_compat=0 / constrained_intra=0 / bframes=7 / b_pyramid=2 / b_adapt=2 / b_bias=0 / direct=3 / weightb=1 / open_gop=0 / weightp=2 / keyint=250 / keyint_min=23 / scenecut=40 / intra_refresh=0 / rc_lookahead=60 / rc=crf / mbtree=0 / crf=17.2000 / qcomp=0.65 / qpmin=0 / qpmax=69 / qpstep=4 / vbv_maxrate=50000 / vbv_bufsize=62500 / crf_max=0.0 / nal_hrd=none / ip_ratio=1.25 / pb_ratio=1.10 / aq=1:0.70
Language : English
Audio #1
ID : 2
Format : DTS
Format/Info : Digital Theater Systems
Codec ID : A_DTS
Duration : 1h 48mn
Bit rate mode : Constant
Bit rate : 448 Kbps
Channel(s) : 2 channels
Channel positions : Front: L R
Sampling rate : 48.0 KHz
Bit depth : 24 bits
Stream size : 349 MiB (4%)
Title : Дубляж [Blu-Ray]
Language : Russian
Audio #2
ID : 3
Format : AC-3
Format/Info : Audio Coding 3
Mode extension : CM (complete main)
Codec ID : A_AC3
Duration : 1h 48mn
Bit rate mode : Constant
Bit rate : 192 Kbps
Channel(s) : 2 channels
Channel positions : Front: L R
Sampling rate : 48.0 KHz
Bit depth : 16 bits
Stream size : 149 MiB (2%)
Title : MVO [SomeWax]
Language : Russian
Audio #3
ID : 4
Format : AC-3
Format/Info : Audio Coding 3
Mode extension : CM (complete main)
Codec ID : A_AC3
Duration : 1h 48mn
Bit rate mode : Constant
Bit rate : 192 Kbps
Channel(s) : 2 channels
Channel positions : Front: L R
Sampling rate : 48.0 KHz
Bit depth : 16 bits
Stream size : 149 MiB (2%)
Title : MVO [DVD Магия]
Language : Russian
Audio #4
ID : 5
Format : AC-3
Format/Info : Audio Coding 3
Mode extension : CM (complete main)
Codec ID : A_AC3
Duration : 1h 48mn
Bit rate mode : Constant
Bit rate : 192 Kbps
Channel(s) : 2 channels
Channel positions : Front: L R
Sampling rate : 48.0 KHz
Bit depth : 16 bits
Stream size : 149 MiB (2%)
Title : MVO [ТВЦ]
Language : Russian
Audio #5
ID : 6
Format : FLAC
Format/Info : Free Lossless Audio Codec
Codec ID : A_FLAC
Duration : 1h 48mn
Bit rate mode : Variable
Channel(s) : 2 channels
Sampling rate : 48.0 KHz
Bit depth : 24 bits
Title : AVO [С.Рябов]
Writing library : libFLAC 1.2.1 (UTC 2007-09-17)
Language : Russian
Audio #6
ID : 7
Format : FLAC
Format/Info : Free Lossless Audio Codec
Codec ID : A_FLAC
Duration : 1h 48mn
Bit rate mode : Variable
Channel(s) : 2 channels
Sampling rate : 48.0 KHz
Bit depth : 24 bits
Title : AVO [Л.Машинский]
Writing library : libFLAC 1.2.1 (UTC 2007-09-17)
Language : Russian
Audio #7
ID : 8
Format : FLAC
Format/Info : Free Lossless Audio Codec
Codec ID : A_FLAC
Duration : 1h 48mn
Bit rate mode : Variable
Channel(s) : 2 channels
Sampling rate : 48.0 KHz
Bit depth : 24 bits
Writing library : libFLAC 1.2.1 (UTC 2007-09-17)
Language : English
Text #1
ID : 9
Format : UTF-8
Codec ID : S_TEXT/UTF8
Codec ID/Info : UTF-8 Plain Text
Title : Blu-Ray, Forced
Language : Russian
Text #2
ID : 10
Format : UTF-8
Codec ID : S_TEXT/UTF8
Codec ID/Info : UTF-8 Plain Text
Title : Blu-Ray, Full
Language : Russian
Text #3
ID : 11
Format : UTF-8
Codec ID : S_TEXT/UTF8
Codec ID/Info : UTF-8 Plain Text
Title : SomeWax
Language : Russian
Text #4
ID : 12
Format : UTF-8
Codec ID : S_TEXT/UTF8
Codec ID/Info : UTF-8 Plain Text
Title : English
Language : English
Menu
00:00:00.000 : :00:00:00.000
00:01:29.089 : :00:01:29.089
00:08:06.861 : :00:08:06.861
00:11:55.924 : :00:11:55.924
00:16:54.931 : :00:16:54.931
00:25:23.605 : :00:25:23.605
00:28:14.693 : :00:28:14.693
00:33:02.856 : :00:33:02.856
00:36:44.911 : :00:36:44.911
00:40:56.788 : :00:40:56.788
00:52:13.130 : :00:52:13.130
01:00:56.903 : :01:00:56.903
01:04:57.352 : :01:04:57.352
01:12:01.484 : :01:12:01.484
01:24:41.076 : :01:24:41.076
01:34:16.484 : :01:34:16.484
01:38:22.855 : :01:38:22.855
01:48:30.629 : :01:48:30.629
Скриншоты:        
Вне форума [Профиль] [ЛС]

Dracula

Стаж: 3 года 1 месяц

Сообщений: 9746

Торрент-статистика

Пост 12-Ноя-2012 14:23 (спустя 7 часов)

Топик был перенесен из форума Фильмы до 2000 года в форум Классика зарубежного кино


Delia
 
Похожие темы
Форум Тема Автор Торрент Отв. Посл. сообщение
./templates/default/images/folder_dl.gif Фантастика, фэнтези, ужасы, мистика Рот Вероника - Дивергент 02, Мятежная (Инсургент) [Оробчук Сергей, (ЛИ), 2016 г., 128 kbps, MP3] Omen
1 | 0

0 | 317

5

2016-06-09 00:33
Omen Последнее
Показать сообщения:    
Ответить на тему

Текущее время: Сегодня 20:22

Часовой пояс: GMT + 3



Вы не можете начинать темы
Вы не можете отвечать на сообщения
Вы не можете редактировать свои сообщения
Вы не можете удалять свои сообщения
Вы не можете голосовать в опросах
Вы не можете прикреплять файлы к сообщениям
Вы не можете скачивать файлы