Сегодня идет свободное скачивание без начисления Download

Неприятности с Гарри / The Trouble with Harry (Альфред Хичкок) [1955, триллер, комедия, детектив, BDRip, 720p]

Ответить на тему
 
Автор
Сообщение

Meshanik ®

Пол:

Стаж: 4 года 6 месяцев

Сообщений: 5581

Откуда: Los Angeles

Торрент-статистика

Пост 12-Ноя-2012 07:24

[Цитировать]

Неприятности с Гарри / The Trouble with Harry
- «A comedy about a corpse.» - «Alfred Hitchcock Blu-ray Collection» - Русское название: Неприятности с Гарри
Оригинальное название: The Trouble with Harry
Страна: США
Год выпуска: 1955
Жанр: триллер, комедия, детектив
Продолжительность: 01:39:23
Перевод: Дублированный, Многоголосый закадровый
Субтитры: Английский, Русский (BD, forced, SomeWax)-Режиссер: Альфред Хичкок
В ролях: Эдмунд Гвенн, Джон Форсайт, Милдред Нэтвик, Милдред Даннок, Джерри Мэзерс, Ройал Дэно, Паркер Феннелли, Бэрри Мэколлам, Дуайт Марфилд, Ширли МакЛейн
Описание фильма:
Комедия о беспокойном… трупе, который создает множество умопомрачительных проблем для мирных соседей в Новой Англии. Да, человека убили, соседям это не нравится. Хичкоку удается сделать это не свойственной для него, блистательной комедией.-
Рейтинг MPAA: PG – лицам до 13 лет обязательное присутствие родителей!!!-Дата мировой премьеры: 27 сентября 1955-Качество видео: BDRip
Видеокодек: MPEG-4 AVC
Битрейт видео: ~12989 kbps
Размер кадра: 1280x694
Аудио:
1. DTS Русский 2.0 / 48 kHz / 448 kbps / 24-bit (Дублированный)
2. Dolby Digital Русский 2.0 / 48 kHz / 192 kbps (Многоголосый закадровый, SomeWax)
3. Dolby Digital Русский 2.0 / 48 kHz / 192 kbps (Многоголосый закадровый, DVD Магия)
4. Dolby Digital Русский 2.0 / 48 kHz / 192 kbps (Многоголосый закадровый, Петербург 5-й канал)
5. FLAC Английский 2.0 / 48 kHz / 579 kbps / 24-bit
-

Знаете ли вы, что...

Дебютная роль Ширли МакЛэйн. Картина снималась в Вермонте.
Натурным съемкам в Вермонте мешал сильный ливень, поэтому многие сцены были сняты в декорациях, построенных в местной гимназии.
Хичкок анонимно купил права на роман за 11 тыс. долларов.
Хичкока можно видеть проходящим мимо припаркованного лимузина миллионера, рассматривающего картины Сэма.

...из книги «3500 кинорецензий»

Если кто-то и сомневается в наличии у Альфреда Хичкока безусловного дара воспринимать действительность в комическом свете, то данная картина должна бы разубедить в этом. Хотя хичкоковское понимание природы смешного весьма своеобразно. И не будь он англичанином до мозга костей даже в своих американских фильмах, можно было бы попытаться найти генеалогию этой «чёрной комедии» выдающегося мастера кино, например, во французском жанре гиньоля. Но Хичкоку всегда было свойственно особое чувство истинно британского абсурдного юмора — не случайно, что лента «Неприятности с Хэрри», явно недооценённая в момент своего появления в США, номинировалась на соискание премии БАФТА в категории лучших работ года как раз в Великобритании. И типичный для его творчества мотив «вины невинного» доведён здесь до полного нонсенса.
Обнаруженный маленьким мальчиком Арни на лесной поляне труп этого самого Хэрри, заявленного в названии картины, доставит немало беспокойств добропорядочным жителям городка в штате Вермонт, что находится в Новой Англии. Да и покойному предстоит быть несколько раз похороненным и выкопанным из могилы, потому что различные люди совершенно по-разному понимают, как же им следует реагировать в сложившейся странной ситуации и решать проблему неожиданно свалившихся на них неприятностей. И прежде всего, в резком контрасте с «могильным юмором» этого криминального сюжета дан невероятно сочный по краскам, по-настоящему праздничный мир разноцветных осенних пейзажей, более пригодный для буколических живописных полотен о «рае земном», из которого словно и не желает вообще удаляться бренное тело некоего человека по имени Хэрри.

MediaInfo

General
Complete name : F:\ The.Trouble.with.Harry.1955.720p.BluRay.4xRus.Eng.HDCLUB.mkv
Format : Matroska
File size : 10.1 GiB
Duration : 1h 39mn
Overall bit rate : 14.6 Mbps
Encoded date : UTC 2012-11-08 23:20:12
Writing application : mkvmerge v4.9.1 ('Ich will') сборка от Jul 11 2011 23:53:15
Writing library : libebml v1.2.1 + libmatroska v1.1.1
Video
ID : 1
Format : AVC
Format/Info : Advanced Video Codec
Format profile : [url=mailto:[email protected]][email protected][/url]
Format settings, CABAC : Yes
Format settings, ReFrames : 9 frames
Muxing mode : Container [email protected]
Codec ID : V_MPEG4/ISO/AVC
Duration : 1h 39mn
Width : 1 280 pixels
Height : 694 pixels
Display aspect ratio : 16:9
Frame rate : 23.976 fps
Color space : YUV
Chroma subsampling : 4:2:0
Bit depth : 8 bits
Scan type : Progressive
Title : The Trouble with Harry 1955 720p Blu-Ray AAC2.0 x264-DON
Writing library : x264 core 128 r2216kMod 198a7ea
Encoding settings : cabac=1 / ref=9 / deblock=1:-3:-3 / analyse=0x3:0x133 / me=tesa / subme=10 / psy=1 / fade_compensate=0.00 / psy_rd=1.10:0.15 / mixed_ref=1 / me_range=24 / chroma_me=1 / trellis=2 / 8x8dct=1 / cqm=0 / deadzone=21,11 / fast_pskip=0 / chroma_qp_offset=-3 / threads=6 / lookahead_threads=1 / sliced_threads=0 / nr=0 / decimate=0 / interlaced=0 / bluray_compat=0 / constrained_intra=0 / bframes=8 / b_pyramid=2 / b_adapt=2 / b_bias=0 / direct=3 / weightb=1 / open_gop=0 / weightp=2 / keyint=250 / keyint_min=23 / scenecut=40 / intra_refresh=0 / rc_lookahead=60 / rc=crf / mbtree=0 / crf=18.0000 / qcomp=0.75 / qpmin=0 / qpmax=69 / qpstep=4 / vbv_maxrate=50000 / vbv_bufsize=62500 / crf_max=0.0 / nal_hrd=none / ip_ratio=1.20 / pb_ratio=1.10 / aq=1:0.75
Language : English
Audio #1
ID : 2
Format : DTS
Format/Info : Digital Theater Systems
Codec ID : A_DTS
Duration : 1h 39mn
Bit rate mode : Constant
Bit rate : 448 Kbps
Channel(s) : 2 channels
Channel positions : Front: L R
Sampling rate : 48.0 KHz
Bit depth : 24 bits
Stream size : 319 MiB (3%)
Title : Дубляж [Blu-Ray]
Language : Russian
Audio #2
ID : 3
Format : AC-3
Format/Info : Audio Coding 3
Mode extension : CM (complete main)
Codec ID : A_AC3
Duration : 1h 39mn
Bit rate mode : Constant
Bit rate : 192 Kbps
Channel(s) : 2 channels
Channel positions : Front: L R
Sampling rate : 48.0 KHz
Bit depth : 16 bits
Stream size : 137 MiB (1%)
Title : MVO [SomeWax]
Language : Russian
Audio #3
ID : 4
Format : AC-3
Format/Info : Audio Coding 3
Mode extension : CM (complete main)
Codec ID : A_AC3
Duration : 1h 39mn
Bit rate mode : Constant
Bit rate : 192 Kbps
Channel(s) : 2 channels
Channel positions : Front: L R
Sampling rate : 48.0 KHz
Bit depth : 16 bits
Stream size : 137 MiB (1%)
Title : MVO [DVD Магия]
Language : Russian
Audio #4
ID : 5
Format : AC-3
Format/Info : Audio Coding 3
Mode extension : CM (complete main)
Codec ID : A_AC3
Duration : 1h 39mn
Bit rate mode : Constant
Bit rate : 192 Kbps
Channel(s) : 2 channels
Channel positions : Front: L R
Sampling rate : 48.0 KHz
Bit depth : 16 bits
Stream size : 137 MiB (1%)
Title : MVO [Петербург 5-й канал]
Language : Russian
Audio #5
ID : 6
Format : FLAC
Format/Info : Free Lossless Audio Codec
Codec ID : A_FLAC
Duration : 1h 39mn
Bit rate mode : Variable
Channel(s) : 2 channels
Sampling rate : 48.0 KHz
Bit depth : 24 bits
Writing library : libFLAC 1.2.1 (UTC 2007-09-17)
Language : English
Text #1
ID : 7
Format : UTF-8
Codec ID : S_TEXT/UTF8
Codec ID/Info : UTF-8 Plain Text
Title : Blu-Ray, Forced
Language : Russian
Text #2
ID : 8
Format : UTF-8
Codec ID : S_TEXT/UTF8
Codec ID/Info : UTF-8 Plain Text
Title : Blu-Ray, Full
Language : Russian
Text #3
ID : 9
Format : UTF-8
Codec ID : S_TEXT/UTF8
Codec ID/Info : UTF-8 Plain Text
Title : SomeWax
Language : Russian
Text #4
ID : 10
Format : UTF-8
Codec ID : S_TEXT/UTF8
Codec ID/Info : UTF-8 Plain Text
Title : English
Language : English
Menu
00:00:00.000 : :00:00:00.000
00:01:52.070 : :00:01:52.070
00:05:15.440 : :00:05:15.440
00:14:06.220 : :00:14:06.220
00:20:47.496 : :00:20:47.496
00:24:20.084 : :00:24:20.084
00:38:01.696 : :00:38:01.696
00:43:15.051 : :00:43:15.051
00:47:21.630 : :00:47:21.630
00:54:20.883 : :00:54:20.883
00:56:49.865 : :00:56:49.865
01:02:55.063 : :01:02:55.063
01:10:03.658 : :01:10:03.658
01:14:28.005 : :01:14:28.005
01:21:21.835 : :01:21:21.835
01:26:25.972 : :01:26:25.972
01:34:42.760 : :01:34:42.760
01:37:19.584 : :01:37:19.584
Скриншоты:        
Вне форума [Профиль] [ЛС]

Dracula

Стаж: 3 года 1 месяц

Сообщений: 9790

Торрент-статистика

Пост 12-Ноя-2012 14:22 (спустя 6 часов)

Топик был перенесен из форума Фильмы до 2000 года в форум Классика зарубежного кино


Delia
 
Похожие темы
Форум Тема Автор Торрент Отв. Посл. сообщение
./templates/default/images/folder_dl.gif Медицина и Здоровье Михаил Титов | Секреты избавления от неприятного запаха изо рта (2015) [PDF] moralis
1 | 0

0 | 176

2

2016-03-15 22:26
moralis Последнее
Показать сообщения:    
Ответить на тему

Текущее время: Сегодня 17:20

Часовой пояс: GMT + 3



Вы не можете начинать темы
Вы не можете отвечать на сообщения
Вы не можете редактировать свои сообщения
Вы не можете удалять свои сообщения
Вы не можете голосовать в опросах
Вы не можете прикреплять файлы к сообщениям
Вы не можете скачивать файлы