Сегодня идет свободное скачивание без начисления Download

Безумие / Frenzy (Альфред Хичкок) (1972, Триллер, Криминал) BDRip

Ответить на тему
 
Автор
Сообщение

Koralina ®

Стаж: 5 лет 3 месяца

Сообщений: 1433

Откуда: Lithuania

Торрент-статистика

Пост 20-Ноя-2012 09:50

[Цитировать]

Безумие / Frenzy (1972) BDRip
Русское название: Безумие
Оригинальное название: Frenzy
Год выпуска: 1972
Жанр: Триллер, Криминал
Описание фильма: Ричард Блени обвиняется в совершении серии убийств женщин, которые найдены задушенными мужскими галстуками. Подозрение падает на него после того, как обнаружены тела его бывшей жены и подружки. Дело кажется настолько очевидным, что полиции не составляет труда получить ордер на арест Блени. Однако после того как Ричарда приговорили к тюремному заключению сроком на 25 лет, инспектор Оксфорд, проводивший расследование, начинает сомневаться в его виновности и продолжает поиски убийцы…
Режиссер: Альфред Хичкок
Актеры: Джон Финч, Алек МакКоуэн, Бэрри Фостер, Билли Уайтлоу, Анна Мэсси, Барбара Ли-Хант, Бернард Криббинс, Вивьен Мерчант, Майкл Бейтс, Жан Марш ...
Продолжительность: 01:55:52
Перевод: Дублированный

Дата мировой премьеры: 25 мая 1972
Видеокодек: Xvid
Битрейт видео: ~1405 kbps
Размер кадра: 720x384
Качество видео: BDRip
Аудиокодек: AC3 2.0
Битрейт аудио: 384.00 kbps
&

MediaInfo

Общее
Полное имя : D:\Раздачи\Frenzy.1972.BDRip.avi
Формат : AVI
Формат/Информация : Audio Video Interleave
Профиль формата : OpenDML
Настройки формата : rec
Размер файла : 1,45 Гбайт
Продолжительность : 1 ч. 55 м.
Общий поток : 1795 Кбит/сек
Программа кодирования : AVI-Mux GUI 1.17.8.3, Feb 16 201019:42:50
Видео
Идентификатор : 0
Формат : MPEG-4 Visual
Профиль формата : Advanced [email protected]
Параметр BVOP формата : 1
Параметр QPel формата : Нет
Параметр GMC формата : Без точки перехода
Параметр матрицы формата : Выборочная
Режим смешивания : Сжатый битовый поток
Идентификатор кодека : XVID
Идентификатор кодека/Подсказка : XviD
Продолжительность : 1 ч. 55 м.
Битрейт : 1405 Кбит/сек
Ширина : 720 пикселей
Высота : 384 пикселя
Соотношение сторон : 1,875
Частота кадров : 23,976 кадра/сек
Цветовое пространство : YUV
Субдискретизация насыщенности : 4:2:0
Битовая глубина : 8 бит
Тип развёртки : Прогрессивная
Метод сжатия : С потерями
Бит/(Пиксели*Кадры) : 0.212
Размер потока : 1,14 Гбайт (78%)
Библиотека кодирования : XviD 65
Аудио
Идентификатор : 1
Формат : AC-3
Формат/Информация : Audio Coding 3
Расширение режима : CM (complete main)
Идентификатор кодека : 2000
Продолжительность : 1 ч. 55 м.
Вид битрейта : Постоянный
Битрейт : 384 Кбит/сек
Каналы : 2 канала
Расположение каналов : Front: L R
Частота : 48,0 КГц
Битовая глубина : 16 бит
Метод сжатия : С потерями
Размер потока : 318 Мбайт (21%)
Выравнивание : Соединение по промежуткам
Продолжительность промежутка : 64 мс. (1,53 видеокадра)
Время предзагрузки промежутка : 192 мс.
Заголовок : Дублированный
Скриншоты:
           

_________________
Вне форума [Профиль] [ЛС]
Похожие темы
Форум Тема Автор Торрент Отв. Посл. сообщение
./templates/default/images/folder_dl.gif T Фильмы 2011-2016 Безумный Макс: Дорога ярости / Mad Max: Fury Road (Джордж Миллер / George Miller) [2015 г., боевик, фантастика, приключения, TS] Dub Clavik
1 | 0

1 | 1623

92

2016-01-02 08:06
Dracula Последнее
./templates/default/images/folder_dl.gif Фильмы 2011-2016 Безумный Макс: Дорога ярости / Mad Max: Fury Road (Джордж Миллер / George Miller) [2015 г., боевик, фантастика, приключения, WEB-DLRip] Dub (Звук с TS) Clavik
1 | 0

1 | 714

37

2016-01-02 08:25
Dracula Последнее
Показать сообщения:    
Ответить на тему

Текущее время: Сегодня 13:32

Часовой пояс: GMT + 3



Вы не можете начинать темы
Вы не можете отвечать на сообщения
Вы не можете редактировать свои сообщения
Вы не можете удалять свои сообщения
Вы не можете голосовать в опросах
Вы не можете прикреплять файлы к сообщениям
Вы не можете скачивать файлы