Сегодня идет свободное скачивание без начисления Download

Пробуждение / Awakenings (Пенни Маршалл) [1990.., Драма, 1080p, BDRip]

Ответить на тему
 
Автор
Сообщение

Meshanik ®

Пол:

Стаж: 4 года 6 месяцев

Сообщений: 5581

Откуда: Los Angeles

Торрент-статистика

Пост 28-Ноя-2012 04:16

[Цитировать]

Пробуждение / Awakenings- Русское название: Пробуждение
Оригинальное название: Awakenings
Год выпуска: 1990
Страна: США
Жанр: Драма
Продолжительность: 02:00:41
Перевод: Профессиональный (многоголосый, закадровый)
Язык субтитров: Русские, английские
Вид субтитров: Вшитые (отключаемые)-Дата мировой премьеры: 12 декабря 1990-Режиссер: Пенни Маршалл
Сценарий: Стивен Зеллиан, Оливер Сакс
Продюсер: Лоуренс Ласкер, Уолтер Ф. Паркс, Эллиот Эбботт
В ролях: Роберт Де Ниро, Робин Уильямс, Джон Херд, Джули Кэвнер, Пенелопи Энн Миллер, Макс фон Зюдов-Описание фильма:
Доктор Малколм Сэйер, застенчивый врач и ученый, использует экспериментальные препараты, чтобы «пробуждать» обездвиженные жертвы редкого заболевания. Леонард был первым пациентом, получившим это неопробованное лечение. Его пробуждение, наполненное благоговением, страхом и энтузиазмом, приводят как бы ко второму рождению и самого Сэйера по мере того, как пациент открывает для себя и доктора простые радости жизни. Воодушевленный чудесным выздоровлением Леонарда, Сэйер дает лекарство другим больным.-
-Качество видео: BDRip
Видеокодек: MPEG-4 AVC/H.264
Битрейт видео: ~8865 Кбит/сек
Размер кадра: 1920х1040
Аудио#1: AC3 2.0 / 48 kHz / 192 Кбит/сек |Многоголосый, Лицензия|
Аудио#2: AC3 2.0 / 48 kHz / 192 Кбит/сек |Многоголосый, Первый канал TV-rip|
Аудио#3: AC3 2.0 / 48 kHz / 192 Кбит/сек |Многоголосый, Селена Интернешнл по заказу ОРТ VHS-rip|
Аудио#4: DTS 5.1 / 48 kHz / 1509 Кбит/сек | Английский
-

MediaInfo:

Код:
Общее
Уникальный идентификатор : 249356747008250960551542124927928368858 (0xBB985CD2AFB3616FA99593674349FEDA)
Полное имя : D:\торрент-раздачи\Probuzhdenie.1990.x264.BDRip.1080p.mkv
Формат : Matroska
Версия формата : Version 2
Размер файла : 9,23 Гбайт
Продолжительность : 2 ч. 0 м.
Общий поток : 10,9 Мбит/сек
Дата кодирования : UTC 2011-03-18 19:49:17
Программа кодирования : mkvmerge v4.4.0 ('Die Wiederkehr') сборка от Oct 31 2010 21:52:48
Библиотека кодирования : libebml v1.0.0 + libmatroska v1.0.0
Видео
Идентификатор : 1
Формат : AVC
Формат/Информация : Advanced Video Codec
Профиль формата : [url=mailto:[email protected]][email protected][/url]
Параметр CABAC формата : Да
Параметр ReFrames формата : 4 кадра
Идентификатор кодека : V_MPEG4/ISO/AVC
Продолжительность : 2 ч. 0 м.
Битрейт : 8865 Кбит/сек
Ширина : 1920 пикселей
Высота : 1040 пикселей
Соотношение сторон : 1,85:1
Режим частоты кадров : Постоянный
Частота кадров : 23,976 кадра/сек
Цветовое пространство : YUV
Субдискретизация насыщенности : 4:2:0
Битовая глубина : 8 бит
Тип развёртки : Прогрессивная
Бит/(Пиксели*Кадры) : 0.185
Размер потока : 7,29 Гбайт (79%)
Библиотека кодирования : x264 core 114 r1913 5fd3dce
Настройки программы : cabac=1 / ref=4 / deblock=1:0:0 / analyse=0x3:0x113 / me=umh / subme=8 / psy=1 / psy_rd=1.00:0.00 / mixed_ref=1 / me_range=16 / chroma_me=1 / trellis=1 / 8x8dct=1 / cqm=0 / deadzone=21,11 / fast_pskip=1 / chroma_qp_offset=-2 / threads=12 / sliced_threads=0 / nr=0 / decimate=1 / interlaced=0 / constrained_intra=0 / bframes=3 / b_pyramid=2 / b_adapt=2 / b_bias=0 / direct=3 / weightb=1 / open_gop=0 / weightp=2 / keyint=240 / keyint_min=24 / scenecut=40 / intra_refresh=0 / rc_lookahead=50 / rc=2pass / mbtree=1 / bitrate=8865 / ratetol=1.0 / qcomp=0.60 / qpmin=0 / qpmax=69 / qpstep=4 / cplxblur=20.0 / qblur=0.5 / ip_ratio=1.40 / aq=1:1.00
Default : Да
Forced : Нет
Аудио #1
Идентификатор : 2
Формат : AC-3
Формат/Информация : Audio Coding 3
Расширение режима : CM (complete main)
Параметр Endianness формата : Big
Идентификатор кодека : A_AC3
Продолжительность : 2 ч. 0 м.
Вид битрейта : Постоянный
Битрейт : 192 Кбит/сек
Каналы : 2 канала
Расположение каналов : Front: L R
Частота : 48,0 КГц
Битовая глубина : 16 бит
Метод сжатия : С потерями
Размер потока : 166 Мбайт (2%)
Заголовок : MVO
Язык : Russian
Default : Да
Forced : Нет
Аудио #2
Идентификатор : 3
Формат : AC-3
Формат/Информация : Audio Coding 3
Расширение режима : CM (complete main)
Параметр Endianness формата : Big
Идентификатор кодека : A_AC3
Продолжительность : 2 ч. 0 м.
Вид битрейта : Постоянный
Битрейт : 192 Кбит/сек
Каналы : 2 канала
Расположение каналов : Front: L R
Частота : 48,0 КГц
Битовая глубина : 16 бит
Метод сжатия : С потерями
Размер потока : 166 Мбайт (2%)
Заголовок : ORT
Язык : Russian
Default : Нет
Forced : Нет
Аудио #3
Идентификатор : 4
Формат : AC-3
Формат/Информация : Audio Coding 3
Расширение режима : CM (complete main)
Параметр Endianness формата : Big
Идентификатор кодека : A_AC3
Продолжительность : 2 ч. 0 м.
Вид битрейта : Постоянный
Битрейт : 192 Кбит/сек
Каналы : 2 канала
Расположение каналов : Front: L R
Частота : 48,0 КГц
Битовая глубина : 16 бит
Метод сжатия : С потерями
Размер потока : 166 Мбайт (2%)
Заголовок : VHS
Язык : Russian
Default : Нет
Forced : Нет
Аудио #4
Идентификатор : 5
Формат : DTS
Формат/Информация : Digital Theater Systems
Режим : 16
Параметр Endianness формата : Big
Идентификатор кодека : A_DTS
Продолжительность : 2 ч. 0 м.
Вид битрейта : Постоянный
Битрейт : 1509 Кбит/сек
Каналы : 6 каналов
Расположение каналов : Front: L C R, Side: L R, LFE
Частота : 48,0 КГц
Битовая глубина : 24 бит
Метод сжатия : С потерями
Размер потока : 1,27 Гбайт (14%)
Язык : English
Default : Нет
Forced : Нет
Текст #1
Идентификатор : 6
Формат : UTF-8
Идентификатор кодека : S_TEXT/UTF8
Идентификатор кодека/Информация : UTF-8 Plain Text
Язык : Russian
Default : Да
Forced : Нет
Текст #2
Идентификатор : 7
Формат : UTF-8
Идентификатор кодека : S_TEXT/UTF8
Идентификатор кодека/Информация : UTF-8 Plain Text
Язык : English
Default : Нет
Forced : Нет
Меню
00:00:00.000 : en:00:00:00.000
00:04:39.237 : en:00:04:39.237
00:11:05.832 : en:00:11:05.832
00:15:34.976 : en:00:15:34.976
00:22:28.013 : en:00:22:28.013
00:30:11.476 : en:00:30:11.476
00:42:58.493 : en:00:42:58.493
00:52:12.463 : en:00:52:12.463
01:00:40.095 : en:01:00:40.095
01:06:15.263 : en:01:06:15.263
01:11:18.900 : en:01:11:18.900
01:24:19.012 : en:01:24:19.012
01:28:46.238 : en:01:28:46.238
01:30:14.909 : en:01:30:14.909
01:41:32.920 : en:01:41:32.920
01:50:54.314 : en:01:50:54.314
-

Скриншоты:

         
         
-
Вне форума [Профиль] [ЛС]
Показать сообщения:    
Ответить на тему

Текущее время: Сегодня 13:29

Часовой пояс: GMT + 3



Вы не можете начинать темы
Вы не можете отвечать на сообщения
Вы не можете редактировать свои сообщения
Вы не можете удалять свои сообщения
Вы не можете голосовать в опросах
Вы не можете прикреплять файлы к сообщениям
Вы не можете скачивать файлы