Сегодня идет свободное скачивание без начисления Download

Эйс Вентура 2: Когда зовет природа / Ace Ventura: When Nature Calls [комедия, 1995] HDRip

Ответить на тему
 
Автор
Сообщение

DeadMmau5 ®

Пол:

Стаж: 4 года 2 месяца

Сообщений: 161

Откуда: Поскот

Торрент-статистика

Пост 04-Дек-2012 18:40

[Цитировать]

Эйс Вентура 2: Когда зовет природа
«Новые животные, новые приключения, та же прическа»
Страна: США
Жанр: комедия
Год выпуска: 1995
Продолжительность: 01:33:00
Перевод: Профессиональный (дублированный)
Cубтитры: нет
Режиссер: Стив Одекерк/Steve Oedekerk
В ролях: Джим Керри, Иэн МакНис, Саймон Кэллоу, Мейнард Эзиаши, Боб Гантон, Софи Оконедо, Томми Дэвидсон, Адевале Акинойе-Агбаже, Дэнни Д. Дэниелс, Сэм Мотоана Филлипс
Описание: Место действия — Африка. Знаменитый детектив Эйс Вентура, единственный в мире специалист по розыску пропавших домашних любимцев, снова в деле. На этот раз Эйс должен найти Шикаку — священное животное племени Вачати. Без Шикаки не может состояться свадьба дочери вождя племени Вачати и сына вождя воинственного племени Вачуту.
Если Эйс провалит задание, начнется межплеменная война. Но Эйс Вентура не из тех, кто отступает перед трудностями. В поисках священной Шикаки он сражается с аллигаторами, приручает слонов, подражает обезьянам, качается на лианах, ходит по раскаленным углям, вылезает, к ужасу семьи американских туристов, из задницы носорога и ставит «на уши» всю Африку.

Качество видео: HDRip (Рип с BDRip 720p)
Формат видео: AVI
Видео: XviD, 688x288, 23.976 fps, 910 kbps, 0.192 bit/pixel
Аудио: AC3, 48.0 KHz, 192kbps, 2ch

Отчёт MediaInfo

General
Complete name : D:Docume and SettingsAdminМои документыDownloadsAce.Ventura.When.Nature.Calls.HDRip By _Flash.avi
Format : AVI
Format/Info : Audio Video Interleave
File size : 747 MiB
Duration : 1h 33mn
Overall bit rate : 1 112 Kbps
Writing application : VirtualDubMod 1.5.10.3 | www.virtualdub-fr.org || (build 2550/release)
Writing library : VirtualDubMod build 2550/release
Video
ID : 0
Format : MPEG-4 Visual
Format profile : Advanced [email protected]
Format settings, BVOP : 1
Format settings, QPel : No
Format settings, GMC : No warppoints
Format settings, Matrix : Custom
Codec ID : XVID
Codec ID/Hint : XviD
Duration : 1h 33mn
Bit rate : 910 Kbps
Width : 688 pixels
Height : 288 pixels
Display aspect ratio : 2.40:1
Frame rate : 23.976 fps
Color space : YUV
Chroma subsampling : 4:2:0
Bit depth : 8 bits
Scan type : Progressive
Compression mode : Lossy
Bits/(Pixel*Frame) : 0.192
Stream size : 612 MiB (82%)
Writing library : XviD 64
Audio
ID : 1
Format : AC-3
Format/Info : Audio Coding 3
Mode extension : CM (complete main)
Format settings, Endianness : Big
Codec ID : 2000
Duration : 1h 33mn
Bit rate mode : Constant
Bit rate : 192 Kbps
Channel(s) : 2 channels
Channel positions : Front: L R
Sampling rate : 48.0 KHz
Bit depth : 16 bits
Compression mode : Lossy
Stream size : 129 MiB (17%)
Alignment : Split accross interleaves
Interleave, duration : 42 ms (1.00 video frame)
Interleave, preload duration : 500 ms
     

_________________
Вне форума [Профиль] [ЛС]
Показать сообщения:    
Ответить на тему

Текущее время: Сегодня 01:18

Часовой пояс: GMT + 3



Вы не можете начинать темы
Вы не можете отвечать на сообщения
Вы не можете редактировать свои сообщения
Вы не можете удалять свои сообщения
Вы не можете голосовать в опросах
Вы не можете прикреплять файлы к сообщениям
Вы не можете скачивать файлы