Сегодня идет свободное скачивание без начисления Download

Пятый элемент / The Fifth Element (Remastered) (Люк Бессон (Luc Besson)) [1997.., США, Фантастика, боевик, триллер, комедия, [H.264], BDRip]

Ответить на тему
 
Автор
Сообщение

Meshanik ®

Пол:

Стаж: 4 года 6 месяцев

Сообщений: 5580

Откуда: Los Angeles

Торрент-статистика

Пост 05-Дек-2012 04:58

[Цитировать]

Пятый элемент / The Fifth Element
Ремастерированная версия / Remastered Edition
- Русское название: Пятый элемент
Оригинальное название: The Fifth Element
Год выпуска: 1997
Страна: США
Жанр: Фантастика, Боевик, Комедия
Продолжительность: 02:05:53
Перевод: Дубляж (Амальгама), Дубляж (канал НТВ), Многоголосый, Многоголосый (канал СТС), Двухголосый (Гланц и Королева), Одноголосый (А.Гаврилов), Одноголосый (Ю.Живов), Одноголосый (П.Иващенко), Одноголосый (Н. Антонов ???) с VHS, Одноголосый (Е. Хрусталёв) "Буратино"с VHS, Украинский Многоголосый (канал СТБ), Украинский Многоголосый (канал 1+1), Пародия (Однажды в Чернобыле)(без цензуры)
Язык субтитров: Русские, Английские
Вид субтитров: Вшитые-Режиссер: Люк Бессон / Luc Besson
Актеры: Брюс Уиллис (Korben Dallas), Гари Олдман (Jean-Baptiste Emanuel Zorg), Иэн Холм (Father Vito Cornelius), Милла Йовович (Leeloo), Крис Такер (Ruby Rhod), Люк Перри (Billy), Брайон Джеймс (General Munro), Том `Тайни` Листер мл. (President Lindberg), Ли Эванс (Fog), Чарли Крид-Майлз (David), Трики (Right Arm), Джон Невилл (General Staedert)-Описание фильма:
Каждые 5000 лет между параллельными измерениями открываются врата, и силы зла и хаоса стремятся нарушить существующую гармонию. И каждые 5000 лет нашей планете нужен герой, который рискнет встать напути этого зла. В ХХIII веке наступила "красная" дата вселенского календаря и нью-йорскому таксисту Корбену Далласу выпала совсем не радосная карта - святая миссия Спасения. Ему на помощь приходит посланник высшего разума - на вид хрупкая девушка, уязвленная агрессивностью земной цивилизации. Ее имя Лилу. Когда пробьет роковой час, она дополнит четыре элемента всего сущего: Огонь, Воду, Землю, Воздух. И Любовь спасет мир...- -Дата мировой премьеры: 7 мая 1997
Дата выхода DVD релиза: 3 ноября 2010, «Кармен Видео»-Качество видео: BDRip
Видеокодек: MPEG-4 AVC/H.264
Битрейт видео: ~3027 Kbps
Размер кадра: 1056x440
Аудиокодек: AC3, AAC
Аудио 1: Русский, AC3, 6ch 448kbps Дубляж (Амальгама)
Аудио 2: Русский, AC3, 6ch 384kbps Дубляж (канал НТВ)
Аудио 3: Русский, AC3, 2ch 192kbps Многоголосый
Аудио 4: Русский, AC3, 6ch 448kbps Многоголосый (канал СТС)
Аудио 5: Русский, AC3, 6ch 448kbps Двухголосый (Гланц и Королева)
Аудио 6: Русский, AC3, 6ch 448kbps Одноголосый (А.Гаврилов)
Аудио 7: Русский, AAC, 6ch 225kbps Одноголосый (Ю.Живов)
Аудио 8: Русский, AC3, 2ch 160kbps Одноголосый (П.Иващенко)
Аудио 9: Русский, AC3, 2ch 192kbps Одноголосый (Н. Антонов с VHS)
Аудио 10: Русский, AC3, 2ch 160kbps Одноголосый (Е. Хрусталёв) "Буратино"с VHS
Аудио 11: Украинский, AC3, 2ch 192kbps Многоголосый (канал СТБ)
Аудио 12: Украинский, AC3, 2ch 192kbps Многоголосый (канал 1+1)
Аудио 13: Русский, AC3, 2ch 448kbps Пародия (Однажды в Чернобыле)(без цензуры)
Аудио 14: Английский, AC3, 6ch 448kbps Оригинал-

Media Info

Общее
Уникальный идентификатор : 251529357201767574959424012082684993759 (0xBD3ACAC696EB67DCBBF0F9342245A0DF)
Полное имя : F:\The Fifth Element.1997.BDrip-AVC.mkv
Формат : Matroska
Версия формата : Version 2
Размер файла : 6,60 Гбайт
Продолжительность : 2 ч. 5 м.
Общий поток : 7509 Кбит/сек
Дата кодирования : UTC 2011-11-25 04:28:02
Программа кодирования : mkvmerge v4.2.0 ('No Talking') сборка от Jul 28 2010 18:38:23
Библиотека кодирования : libebml v1.0.0 + libmatroska v1.0.0
Видео
Идентификатор : 1
Формат : AVC
Формат/Информация : Advanced Video Codec
Профиль формата : [url=mailto:[email protected]][email protected][/url]
Параметр CABAC формата : Да
Параметр ReFrames формата : 11 кадров
Режим смешивания : Header stripping
Идентификатор кодека : V_MPEG4/ISO/AVC
Продолжительность : 2 ч. 5 м.
Номинальный битрейт : 3027 Кбит/сек
Ширина : 1056 пикселей
Высота : 440 пикселей
Соотношение сторон : 2,40:1
Частота кадров : 23,976 кадра/сек
Цветовое пространство : YUV
Субдискретизация насыщенности : 4:2:0
Битовая глубина : 8 бит
Тип развёртки : Прогрессивная
Бит/(Пиксели*Кадры) : 0.272
Библиотека кодирования : x264 core 92 r1510 33d382a
Настройки программы : cabac=1 / ref=11 / deblock=1:-3:-2 / analyse=0x3:0x133 / me=umh / subme=9 / psy=1 / psy_rd=1.20:0.10 / mixed_ref=1 / me_range=32 / chroma_me=1 / trellis=2 / 8x8dct=1 / cqm=0 / deadzone=21,11 / fast_pskip=0 / chroma_qp_offset=-3 / threads=6 / sliced_threads=0 / nr=0 / decimate=1 / interlaced=0 / constrained_intra=0 / bframes=9 / b_pyramid=2 / b_adapt=2 / b_bias=0 / direct=3 / wpredb=1 / wpredp=2 / keyint=250 / keyint_min=25 / scenecut=40 / intra_refresh=0 / rc_lookahead=70 / rc=2pass / mbtree=1 / bitrate=3027 / ratetol=1.0 / qcomp=0.70 / qpmin=10 / qpmax=51 / qpstep=4 / cplxblur=20.0 / qblur=0.5 / ip_ratio=1.40 / aq=1:1.00
Язык : English
Аудио #1
Идентификатор : 2
Формат : AC-3
Формат/Информация : Audio Coding 3
Расширение режима : CM (complete main)
Режим смешивания : Header stripping
Идентификатор кодека : A_AC3
Продолжительность : 2 ч. 5 м.
Вид битрейта : Постоянный
Битрейт : 448 Кбит/сек
Каналы : 6 каналов
Расположение каналов : Front: L C R, Side: L R, LFE
Частота : 48,0 КГц
Битовая глубина : 16 бит
Метод сжатия : С потерями
Размер потока : 403 Мбайт (6%)
Заголовок : Дублированный Амальгама
Язык : Russian
Аудио #2
Идентификатор : 3
Формат : AC-3
Формат/Информация : Audio Coding 3
Расширение режима : CM (complete main)
Режим смешивания : Header stripping
Идентификатор кодека : A_AC3
Продолжительность : 2 ч. 5 м.
Вид битрейта : Постоянный
Битрейт : 384 Кбит/сек
Каналы : 6 каналов
Расположение каналов : Front: L C R, Side: L R, LFE
Частота : 48,0 КГц
Битовая глубина : 16 бит
Метод сжатия : С потерями
Размер потока : 346 Мбайт (5%)
Заголовок : Дубляж НТВ
Язык : Russian
Аудио #3
Идентификатор : 4
Формат : AC-3
Формат/Информация : Audio Coding 3
Расширение режима : CM (complete main)
Режим смешивания : Header stripping
Идентификатор кодека : A_AC3
Продолжительность : 2 ч. 5 м.
Вид битрейта : Постоянный
Битрейт : 192 Кбит/сек
Каналы : 2 канала
Расположение каналов : Front: L R
Частота : 48,0 КГц
Битовая глубина : 16 бит
Метод сжатия : С потерями
Размер потока : 173 Мбайт (3%)
Заголовок : Многоголосый
Язык : Russian
Аудио #4
Идентификатор : 5
Формат : AC-3
Формат/Информация : Audio Coding 3
Расширение режима : CM (complete main)
Режим смешивания : Header stripping
Идентификатор кодека : A_AC3
Продолжительность : 2 ч. 5 м.
Вид битрейта : Постоянный
Битрейт : 448 Кбит/сек
Каналы : 6 каналов
Расположение каналов : Front: L C R, Side: L R, LFE
Частота : 48,0 КГц
Битовая глубина : 16 бит
Метод сжатия : С потерями
Размер потока : 403 Мбайт (6%)
Заголовок : Многоголосый СТС
Язык : Russian
Аудио #5
Идентификатор : 6
Формат : AC-3
Формат/Информация : Audio Coding 3
Расширение режима : CM (complete main)
Режим смешивания : Header stripping
Идентификатор кодека : A_AC3
Продолжительность : 2 ч. 5 м.
Вид битрейта : Постоянный
Битрейт : 448 Кбит/сек
Каналы : 6 каналов
Расположение каналов : Front: L C R, Side: L R, LFE
Частота : 48,0 КГц
Битовая глубина : 16 бит
Метод сжатия : С потерями
Размер потока : 403 Мбайт (6%)
Заголовок : Гланц и Королева
Язык : Russian
Аудио #6
Идентификатор : 7
Формат : AC-3
Формат/Информация : Audio Coding 3
Расширение режима : CM (complete main)
Режим смешивания : Header stripping
Идентификатор кодека : A_AC3
Продолжительность : 2 ч. 5 м.
Вид битрейта : Постоянный
Битрейт : 448 Кбит/сек
Каналы : 6 каналов
Расположение каналов : Front: L C R, Side: L R, LFE
Частота : 48,0 КГц
Битовая глубина : 16 бит
Метод сжатия : С потерями
Размер потока : 403 Мбайт (6%)
Заголовок : Гаврилов
Язык : Russian
Аудио #7
Идентификатор : 8
Формат : AAC
Формат/Информация : Advanced Audio Codec
Профиль формата : LC
Идентификатор кодека : A_AAC
Продолжительность : 2 ч. 5 м.
Каналы : 6 каналов
Расположение каналов : Front: L C R, Side: L R, LFE
Частота : 48,0 КГц
Метод сжатия : С потерями
Заголовок : Живов
Язык : Russian
Аудио #8
Идентификатор : 9
Формат : AC-3
Формат/Информация : Audio Coding 3
Расширение режима : CM (complete main)
Режим смешивания : Header stripping
Идентификатор кодека : A_AC3
Продолжительность : 2 ч. 5 м.
Вид битрейта : Постоянный
Битрейт : 160 Кбит/сек
Каналы : 2 канала
Расположение каналов : Front: L R
Частота : 48,0 КГц
Битовая глубина : 16 бит
Метод сжатия : С потерями
Размер потока : 144 Мбайт (2%)
Заголовок : Иващенко
Язык : Russian
Аудио #9
Идентификатор : 10
Формат : AC-3
Формат/Информация : Audio Coding 3
Расширение режима : CM (complete main)
Режим смешивания : Header stripping
Идентификатор кодека : A_AC3
Продолжительность : 2 ч. 5 м.
Вид битрейта : Постоянный
Битрейт : 192 Кбит/сек
Каналы : 2 канала
Расположение каналов : Front: L R
Частота : 48,0 КГц
Битовая глубина : 16 бит
Метод сжатия : С потерями
Размер потока : 173 Мбайт (3%)
Заголовок : Антонов VHS
Язык : Russian
Аудио #10
Идентификатор : 11
Формат : AC-3
Формат/Информация : Audio Coding 3
Расширение режима : CM (complete main)
Режим смешивания : Header stripping
Идентификатор кодека : A_AC3
Продолжительность : 2 ч. 5 м.
Вид битрейта : Постоянный
Битрейт : 160 Кбит/сек
Каналы : 2 канала
Расположение каналов : Front: L R
Частота : 48,0 КГц
Битовая глубина : 16 бит
Метод сжатия : С потерями
Размер потока : 144 Мбайт (2%)
Заголовок : Хрусталев (Буратино)
Язык : Russian
Аудио #11
Идентификатор : 12
Формат : AC-3
Формат/Информация : Audio Coding 3
Расширение режима : CM (complete main)
Режим смешивания : Header stripping
Идентификатор кодека : A_AC3
Продолжительность : 2 ч. 5 м.
Вид битрейта : Постоянный
Битрейт : 192 Кбит/сек
Каналы : 2 канала
Расположение каналов : Front: L R
Частота : 48,0 КГц
Битовая глубина : 16 бит
Метод сжатия : С потерями
Размер потока : 173 Мбайт (3%)
Заголовок : Укранский СТБ
Язык : Ukrainian
Аудио #12
Идентификатор : 13
Формат : AC-3
Формат/Информация : Audio Coding 3
Расширение режима : CM (complete main)
Режим смешивания : Header stripping
Идентификатор кодека : A_AC3
Продолжительность : 2 ч. 5 м.
Вид битрейта : Постоянный
Битрейт : 192 Кбит/сек
Каналы : 2 канала
Расположение каналов : Front: L R
Частота : 48,0 КГц
Битовая глубина : 16 бит
Метод сжатия : С потерями
Размер потока : 173 Мбайт (3%)
Заголовок : Украинский 1+1
Язык : Ukrainian
Аудио #13
Идентификатор : 14
Формат : AC-3
Формат/Информация : Audio Coding 3
Расширение режима : CM (complete main)
Режим смешивания : Header stripping
Идентификатор кодека : A_AC3
Продолжительность : 2 ч. 5 м.
Вид битрейта : Постоянный
Битрейт : 448 Кбит/сек
Каналы : 2 канала
Расположение каналов : Front: L R
Частота : 48,0 КГц
Битовая глубина : 16 бит
Метод сжатия : С потерями
Размер потока : 403 Мбайт (6%)
Заголовок : Однажды в Чернобыле
Язык : Russian
Аудио #14
Идентификатор : 15
Формат : AC-3
Формат/Информация : Audio Coding 3
Расширение режима : CM (complete main)
Режим смешивания : Header stripping
Идентификатор кодека : A_AC3
Продолжительность : 2 ч. 5 м.
Вид битрейта : Постоянный
Битрейт : 448 Кбит/сек
Каналы : 6 каналов
Расположение каналов : Front: L C R, Side: L R, LFE
Частота : 48,0 КГц
Битовая глубина : 16 бит
Метод сжатия : С потерями
Размер потока : 403 Мбайт (6%)
Заголовок : Английские
Язык : English
Текст #1
Идентификатор : 16
Формат : UTF-8
Идентификатор кодека : S_TEXT/UTF8
Идентификатор кодека/Информация : UTF-8 Plain Text
Заголовок : Русский
Язык : Russian
Текст #2
Идентификатор : 17
Формат : UTF-8
Идентификатор кодека : S_TEXT/UTF8
Идентификатор кодека/Информация : UTF-8 Plain Text
Заголовок : Eng
Язык : English

Cкриншоты из фильма:

       
       
Вне форума [Профиль] [ЛС]
Похожие темы
Форум Тема Автор Торрент Отв. Посл. сообщение
./templates/default/images/folder_dl.gif Обучающее видео Работа с сомнениями клиентов на завершающих этапах сделки / Пятый вебинар курса Академии SPINCAT "Стратегия и тактика больших продаж" (СПИН-продажи) [2015, Продажи, SATRip, RUS] (Видеоурок) Omen
1 | 0

0 | 333

7

2015-07-26 00:00
Omen Последнее
Показать сообщения:    
Ответить на тему

Текущее время: Сегодня 01:14

Часовой пояс: GMT + 3



Вы не можете начинать темы
Вы не можете отвечать на сообщения
Вы не можете редактировать свои сообщения
Вы не можете удалять свои сообщения
Вы не можете голосовать в опросах
Вы не можете прикреплять файлы к сообщениям
Вы не можете скачивать файлы