Today is a free download without charge Download

(Instrumental) VA - Instrumental Gold Collection - World's Best Hits, Volume 3 (2CD) - 2001, APE (image + .cue), lossless

Reply to topic
 
Author
Message

sergej644 ®

Gender:

Longevity: 7 years

Posts: 632

Торрент-статистика

Post 07-Dec-2012 10:02

[Quote]

-VA - Gold Instrumental Collection Vol.3 (2CD)-
Страна: All World
Жанр: Instrumental
Год выпуска: 2001
Формат: APE (image + .cue)
Битрейт аудио: lossless
Продолжительность: 02:29:16
-Трэклист:-

CD 1

продолжительность: 01:14:39
01.Walter Murphy - A Fifth Of Beethoven (03:01)
02.Vanessa Mae - Contadanza (03:49)
03.Francis Goya - Nostalgia (02:52)
04.Ron Asprey - I Will Always Love You (03:58)
05.Blonker - Sidewalk Cafe (03:12)
06.Alan Parsons - Hawkeye (03:47)
07.Secret Service - Aux Deux Magots (04:09)
08.The Shadows - Chattanooga Choo Choo (02:21)
09.Fausto Papetti - Feelings (03:34)
10.Jan Holland - Black Eyes (02:01)
11.Alex Bollard - You Are Lady (03:52)
12.Paul Mauriat - Godfather (02:37)
13.Santana - I Love You Much To Much (04:42)
14.Ocarina II - Ocarina II (Fluite Solo) (03:26)
15.Bert Kaempfert - Twilight (02:36)
16.Julee Cruise - Twin Peaks Theme (05:02)
17.Saint Preux - Prelude Pour Plano (02:32)
18.Kenny G - The Moment (04:33)
19.Frank Duval - Main Theme III (04:00)
20.Errol Garner - Paris Mist (04:19)
21.James Last - Biscaya (04:07)

Лог создания рипа

Код:
Exact Audio Copy V0.99 prebeta 5 from 4. May 2009
Отчёт EAC об извлечении, выполненном 22. августа 2009, 18:02
Various / Various - Gold Instrumental Collection Vol.3 - CD1
Дисковод: PIONEER DVD-RW  DVR-216D   Adapter: 0  ID: 0
Режим чтения                 : Достоверность
Использование точного потока : Да
Отключение кэша аудио        : Да
Использование указателей C2  : Нет
Коррекция смещения при чтении                     : 96
Способность читать области Lead-in и Lead-out     : Нет
Заполнение пропущенных сэмплов тишиной            : Да
Удаление блоков с тишиной в начале и конце        : Нет
При вычислениях CRC использовались нулевые сэмплы : Да
Интерфейс                                         : Установленный внешний ASPI-интерфейс
Выходной формат : Внутренние WAV-операции
Формат сэмплов  : 44.100 Гц; 16 бит; стерео
TOC извлечённого CD
     Трек |   Старт  | Длительность | Начальный сектор | Конечный сектор
    ---------------------------------------------------------------------
       1  |  0:00.00 |    3:01.38   |           0      |      13612
       2  |  3:01.38 |    3:49.00   |       13613      |      30787
       3  |  6:50.38 |    2:52.37   |       30788      |      43724
       4  |  9:43.00 |    3:58.00   |       43725      |      61574
       5  | 13:41.00 |    3:12.63   |       61575      |      76037
       6  | 16:53.63 |    3:47.36   |       76038      |      93098
       7  | 20:41.24 |    4:09.37   |       93099      |     111810
       8  | 24:50.61 |    2:21.37   |      111811      |     122422
       9  | 27:12.23 |    3:34.50   |      122423      |     138522
      10  | 30:46.73 |    2:01.61   |      138523      |     147658
      11  | 32:48.59 |    3:52.59   |      147659      |     165117
      12  | 36:41.43 |    2:37.26   |      165118      |     176918
      13  | 39:18.69 |    4:42.67   |      176919      |     198135
      14  | 44:01.61 |    3:26.63   |      198136      |     213648
      15  | 47:28.49 |    2:36.37   |      213649      |     225385
      16  | 50:05.11 |    5:02.27   |      225386      |     248062
      17  | 55:07.38 |    2:32.01   |      248063      |     259463
      18  | 57:39.39 |    4:33.27   |      259464      |     279965
      19  | 62:12.66 |    4:00.38   |      279966      |     298003
      20  | 66:13.29 |    4:19.36   |      298004      |     317464
      21  | 70:32.65 |    4:07.10   |      317465      |     335999
Характеристики диапазона извлечения и сообщения об ошибках
Выбранный диапазон
     Имя файла D:\DVD\Раздачи торрентов\Instrumental Gold Collection - World's Best Hits\Том 3\CD 1\Various - Various - Gold Instrumental Collection Vol.3 - CD1.wav
     Пиковый уровень 98.9 %
     Качество диапазона 100.0 %
     CRC копии 91512A86
     Копирование... OK
Ошибок не произошло
Конец отчёта

Содержание индексной карты *cue

Код:
REM GENRE Instrumental
REM DATE 1995
REM DISCID 17118015
REM COMMENT "ExactAudioCopy v0.99pb5"
PERFORMER "Various"
TITLE "Various - Gold Instrumental Collection Vol.3 - CD1"
FILE "Various - Various - Gold Instrumental Collection Vol.3 - CD1.ape" WAVE
  TRACK 01 AUDIO
    TITLE "A Fifth Of Beethoven"
    PERFORMER "Walter Murphy"
    INDEX 01 00:00:00
  TRACK 02 AUDIO
    TITLE "Contadanza"
    PERFORMER "Vanessa Mae"
    INDEX 01 03:01:38
  TRACK 03 AUDIO
    TITLE "Nostalgia"
    PERFORMER "Francis Goya"
    INDEX 01 06:50:38
  TRACK 04 AUDIO
    TITLE "I Will Always Love You"
    PERFORMER "Ron Asprey"
    INDEX 01 09:43:00
  TRACK 05 AUDIO
    TITLE "Sidewalk Cafe"
    PERFORMER "Blonker"
    INDEX 01 13:41:00
  TRACK 06 AUDIO
    TITLE "Hawkeye"
    PERFORMER "Alan Parsons"
    INDEX 01 16:53:63
  TRACK 07 AUDIO
    TITLE "Aux Deux Magots"
    PERFORMER "Secret Service"
    INDEX 01 20:41:24
  TRACK 08 AUDIO
    TITLE "Chattanooga Choo Choo"
    PERFORMER "The Shadows"
    INDEX 01 24:50:61
  TRACK 09 AUDIO
    TITLE "Feelings"
    PERFORMER "Fausto Papetti"
    INDEX 01 27:12:23
  TRACK 10 AUDIO
    TITLE "Black Eyes"
    PERFORMER "Jan Holland"
    INDEX 01 30:46:73
  TRACK 11 AUDIO
    TITLE "You Are Lady"
    PERFORMER "Alex Bollard"
    INDEX 01 32:48:59
  TRACK 12 AUDIO
    TITLE "Godfather"
    PERFORMER "Paul Mauriat"
    INDEX 01 36:41:43
  TRACK 13 AUDIO
    TITLE "I Love You Much To Much"
    PERFORMER "Santana"
    INDEX 01 39:18:69
  TRACK 14 AUDIO
    TITLE "Ocarina II (Fluite Solo)"
    PERFORMER "Ocarina II"
    INDEX 01 44:01:61
  TRACK 15 AUDIO
    TITLE "Twilight"
    PERFORMER "Bert Kaempfert"
    INDEX 01 47:28:49
  TRACK 16 AUDIO
    TITLE "Twin Peaks Theme"
    PERFORMER "Julee Cruise"
    INDEX 01 50:05:11
  TRACK 17 AUDIO
    TITLE "Prelude Pour Plano"
    PERFORMER "Saint Preux"
    INDEX 01 55:07:38
  TRACK 18 AUDIO
    TITLE "The Moment"
    PERFORMER "Kenny G"
    INDEX 01 57:39:39
  TRACK 19 AUDIO
    TITLE "Main Theme III"
    PERFORMER "Frank Duval"
    INDEX 01 62:12:66
  TRACK 20 AUDIO
    TITLE "Paris Mist"
    PERFORMER "Errol Garner"
    INDEX 01 66:13:29
  TRACK 21 AUDIO
    TITLE "Biscaya"
    PERFORMER "James Last"
    INDEX 01 70:32:65

CD 2

продолжительность: 01:14:37
01.Paul Mauriat - Love Story (03:01)
02.Fausto Papetti - Alone Again (03:34)
03.George Benson - C-Smooth (05:56)
04.Richard Clauderman & James Last - Reflections (04:23)
05.Bisquitte - Zoo Zoo (03:13)
06.Jan Holland - El Bambino (01:57)
07.Blonker - Aranjues (04:46)
08.Eddy Calvert - Mistral (02:57)
09.The Ventures - Music To Watch Girls By (02:22)
10.Jean Michel Jarre - Oxygene IV (04:05)
11.Edward Simoni - Feuer Tanz (03:25)
12.Mark Knopfler & Chet Atkins - I'll See You In My Dreams (02:58)
13.Francis Goya & Damian Luca - Memory (03:47)
14.Francisco Garsia - What's A Woman (03:16)
15.Whitehall Mystery Orchestra - My Serenade (03:29)
16.Blackmore's Kingdom - Greensleeves (03:27)
17.James Last - Tico-Tico (03:13)
18.The Lively Ones - Surf Rider (03:18)
19.Peter Weekers - Wish You Were Here (03:55)
20.Saint Preux - Intermezzo (02:12)
21.Vangelis - Ignacio (05:12)

Лог создания рипа

Код:
Exact Audio Copy V0.99 prebeta 5 from 4. May 2009
Отчёт EAC об извлечении, выполненном 22. августа 2009, 20:38
Various / Gold Instrumental Collection Vol.3 - CD2
Дисковод: PIONEER DVD-RW  DVR-216D   Adapter: 0  ID: 0
Режим чтения                 : Достоверность
Использование точного потока : Да
Отключение кэша аудио        : Да
Использование указателей C2  : Нет
Коррекция смещения при чтении                     : 96
Способность читать области Lead-in и Lead-out     : Нет
Заполнение пропущенных сэмплов тишиной            : Да
Удаление блоков с тишиной в начале и конце        : Нет
При вычислениях CRC использовались нулевые сэмплы : Да
Интерфейс                                         : Установленный внешний ASPI-интерфейс
Выходной формат : Внутренние WAV-операции
Формат сэмплов  : 44.100 Гц; 16 бит; стерео
TOC извлечённого CD
     Трек |   Старт  | Длительность | Начальный сектор | Конечный сектор
    ---------------------------------------------------------------------
       1  |  0:00.00 |    3:01.28   |           0      |      13602
       2  |  3:01.28 |    3:34.30   |       13603      |      29682
       3  |  6:35.58 |    5:56.38   |       29683      |      56420
       4  | 12:32.21 |    4:23.67   |       56421      |      76212
       5  | 16:56.13 |    3:13.52   |       76213      |      90739
       6  | 20:09.65 |    1:57.47   |       90740      |      99561
       7  | 22:07.37 |    4:46.02   |       99562      |     121013
       8  | 26:53.39 |    2:57.66   |      121014      |     134354
       9  | 29:51.30 |    2:22.36   |      134355      |     145040
      10  | 32:13.66 |    4:05.00   |      145041      |     163415
      11  | 36:18.66 |    3:25.40   |      163416      |     178830
      12  | 39:44.31 |    2:58.60   |      178831      |     192240
      13  | 42:43.16 |    3:47.44   |      192241      |     209309
      14  | 46:30.60 |    3:16.65   |      209310      |     224074
      15  | 49:47.50 |    3:29.36   |      224075      |     239785
      16  | 53:17.11 |    3:27.47   |      239786      |     255357
      17  | 56:44.58 |    3:13.38   |      255358      |     269870
      18  | 59:58.21 |    3:18.37   |      269871      |     284757
      19  | 63:16.58 |    3:55.26   |      284758      |     302408
      20  | 67:12.09 |    2:12.25   |      302409      |     312333
      21  | 69:24.34 |    5:12.70   |      312334      |     335803
Характеристики диапазона извлечения и сообщения об ошибках
Выбранный диапазон
     Имя файла D:\DVD\Раздачи торрентов\Instrumental Gold Collection - World's Best Hits\Том 3\CD 2\Various - Gold Instrumental Collection Vol.3 - CD2.wav
     Пиковый уровень 100.0 %
     Качество диапазона 100.0 %
     CRC копии 5D6B70AA
     Копирование... OK
Ошибок не произошло
Конец отчёта

Содержание индексной карты *cue

Код:
REM GENRE Instrumental
REM DATE 1995
REM DISCID 46117D15
REM COMMENT "ExactAudioCopy v0.99pb5"
PERFORMER "Various"
TITLE "Gold Instrumental Collection Vol.3 - CD2"
FILE "Various - Gold Instrumental Collection Vol.3 - CD2.ape" WAVE
  TRACK 01 AUDIO
    TITLE "Love Story"
    PERFORMER "Paul Mauriat"
    INDEX 01 00:00:00
  TRACK 02 AUDIO
    TITLE "Alone Again"
    PERFORMER "Fausto Papetti"
    INDEX 01 03:01:28
  TRACK 03 AUDIO
    TITLE "C-Smooth"
    PERFORMER "George Benson"
    INDEX 01 06:35:58
  TRACK 04 AUDIO
    TITLE "Reflections"
    PERFORMER "Richard Clauderman & James Last"
    INDEX 01 12:32:21
  TRACK 05 AUDIO
    TITLE "Zoo Zoo"
    PERFORMER "Bisquitte"
    INDEX 01 16:56:13
  TRACK 06 AUDIO
    TITLE "El Bambino"
    PERFORMER "Jan Holland"
    INDEX 01 20:09:65
  TRACK 07 AUDIO
    TITLE "Aranjues"
    PERFORMER "Blonker"
    INDEX 01 22:07:37
  TRACK 08 AUDIO
    TITLE "Mistral"
    PERFORMER "Eddy Calvert"
    INDEX 01 26:53:39
  TRACK 09 AUDIO
    TITLE "Music To Watch Girls By"
    PERFORMER "The Ventures"
    INDEX 01 29:51:30
  TRACK 10 AUDIO
    TITLE "Oxygene IV"
    PERFORMER "Jean Michel Jarre"
    INDEX 01 32:13:66
  TRACK 11 AUDIO
    TITLE "Feuer Tanz"
    PERFORMER "Edward Simoni"
    INDEX 01 36:18:66
  TRACK 12 AUDIO
    TITLE "I'll See You In My Dreams"
    PERFORMER "Mark Knopfler & Chet Atkins"
    INDEX 01 39:44:31
  TRACK 13 AUDIO
    TITLE "Memory"
    PERFORMER "Francis Goya & Damian Luca"
    INDEX 01 42:43:16
  TRACK 14 AUDIO
    TITLE "What's A Woman"
    PERFORMER "Francisco Garsia"
    INDEX 01 46:30:60
  TRACK 15 AUDIO
    TITLE "My Serenade"
    PERFORMER "Whitehall Mystery Orchestra"
    INDEX 01 49:47:50
  TRACK 16 AUDIO
    TITLE "Greensleeves"
    PERFORMER "Blackmore's Kingdom"
    INDEX 01 53:17:11
  TRACK 17 AUDIO
    TITLE "Tico-Tico"
    PERFORMER "James Last"
    INDEX 01 56:44:58
  TRACK 18 AUDIO
    TITLE "Surf Rider"
    PERFORMER "The Lively Ones"
    INDEX 01 59:58:21
  TRACK 19 AUDIO
    TITLE "Wish You Were Here"
    PERFORMER "Peter Weekers"
    INDEX 01 63:16:58
  TRACK 20 AUDIO
    TITLE "Intermezzo"
    PERFORMER "Saint Preux"
    INDEX 01 67:12:09
  TRACK 21 AUDIO
    TITLE "Ignacio"
    PERFORMER "Vangelis"
    INDEX 01 69:24:34
-- --

_________________
Other forum [Profile] [PM]
Display posts from previous:    
Reply to topic

The time now is: Today 19:11

All times are GMT + 3 Hours



You cannot post new topics in this forum
You cannot reply to topics in this forum
You cannot edit your posts in this forum
You cannot delete your posts in this forum
You cannot vote in polls in this forum
You cannot attach files in this forum
You cannot download files in this forum