Today is a free download without charge Download

(Instrumental) VA - Instrumental Gold Collection - World's Best Hits, Volume 6 (2CD) - 2001, APE (image + .cue), lossless

Reply to topic
 
Author
Message

sergej644 ®

Gender:

Longevity: 7 years

Posts: 629

Торрент-статистика

Post 07-Dec-2012 10:07

[Quote]

-VA - Instrumental Gold Collection, Volume 6 (2CD)-
Страна: All World
Жанр: Instrumental
Год выпуска: 2001
Формат: APE (image + .cue)
Битрейт аудио: lossless
Продолжительность: 02:39:34
-Трэклист:-

CD 1

продолжительность: 01:16:55
01.Ennio Morricone - The Sicilian Clan (04:00)
02.Francis Goya - Natacha (02:49)
03.Neal Schon - Caruso (05:42)
04.Giorgio Moroder - Irena's Theme (04:17)
05.Kirk Whalum - My All (04:00)
06.Richard Clauderman - La Cumparisa (03:14)
07.Helmut Zacharias - Moon River (02:49)
08.Goran Bregovic - Old Home Movie (05:05)
09.Ed Calle - Spanish Rose (04:58)
10.3rd Force - Bridge of Dreams (04:18)
11.Milan Koren - Tiko-Tiko (04:49)
12.Gil Ventura - Bogota (02:55)
13.Tim Timmermans - Andrea With the Flowered Bag (04:07)
14.Chris Spheeris - Psyche (04:53)
15.James Last - Slovanie Dance Nr. 10 (02:18)
16.Chet Atkins & Les Paul - Limehouse Blues (02:49)
17.Joe Satriani - Tears in the Rain (01:20)
18.Rondo Veneziano - Armonie (02:37)
19.Jan Holland - De Vogeltjesdans (02:13)
20.Max Gregor - Medley (07:33)

Лог создания рипа

Код:
Exact Audio Copy V0.99 prebeta 5 from 4. May 2009
Отчёт EAC об извлечении, выполненном 23. августа 2009, 11:24
Various / Instrumental Gold Collection, Volume 6 (disc 1)
Дисковод: PIONEER DVD-RW  DVR-216D   Adapter: 0  ID: 0
Режим чтения                 : Достоверность
Использование точного потока : Да
Отключение кэша аудио        : Да
Использование указателей C2  : Нет
Коррекция смещения при чтении                     : 96
Способность читать области Lead-in и Lead-out     : Нет
Заполнение пропущенных сэмплов тишиной            : Да
Удаление блоков с тишиной в начале и конце        : Нет
При вычислениях CRC использовались нулевые сэмплы : Да
Интерфейс                                         : Установленный внешний ASPI-интерфейс
Выходной формат : Внутренние WAV-операции
Формат сэмплов  : 44.100 Гц; 16 бит; стерео
TOC извлечённого CD
     Трек |   Старт  | Длительность | Начальный сектор | Конечный сектор
    ---------------------------------------------------------------------
       1  |  0:00.00 |    4:00.52   |           0      |      18051
       2  |  4:00.52 |    2:49.15   |       18052      |      30741
       3  |  6:49.67 |    5:42.34   |       30742      |      56425
       4  | 12:32.26 |    4:17.38   |       56426      |      75738
       5  | 16:49.64 |    4:00.28   |       75739      |      93766
       6  | 20:50.17 |    3:14.25   |       93767      |     108341
       7  | 24:04.42 |    2:49.22   |      108342      |     121038
       8  | 26:53.64 |    5:05.29   |      121039      |     143942
       9  | 31:59.18 |    4:58.52   |      143943      |     166344
      10  | 36:57.70 |    4:18.60   |      166345      |     185754
      11  | 41:16.55 |    4:49.25   |      185755      |     207454
      12  | 46:06.05 |    2:55.14   |      207455      |     220593
      13  | 49:01.19 |    4:07.44   |      220594      |     239162
      14  | 53:08.63 |    4:53.09   |      239163      |     261146
      15  | 58:01.72 |    2:18.30   |      261147      |     271526
      16  | 60:20.27 |    2:49.69   |      271527      |     284270
      17  | 63:10.21 |    1:20.03   |      284271      |     290273
      18  | 64:30.24 |    2:37.42   |      290274      |     302090
      19  | 67:07.66 |    2:13.45   |      302091      |     312110
      20  | 69:21.36 |    7:33.56   |      312111      |     346141
Характеристики диапазона извлечения и сообщения об ошибках
Выбранный диапазон
     Имя файла D:\DVD\Раздачи торрентов\Instrumental Gold Collection - World's Best Hits\Том 6\CD 1\Various - Instrumental Gold Collection, Volume 6 (disc 1).wav
     Пиковый уровень 100.0 %
     Качество диапазона 99.9 %
     CRC копии 35262975
     Копирование... OK
Ошибок не произошло
Конец отчёта

Содержание индексной карты *cue

Код:
REM GENRE Instrumental
REM DATE 2001
REM DISCID 15120714
REM COMMENT "ExactAudioCopy v0.99pb5"
PERFORMER "Various"
TITLE "Instrumental Gold Collection, Volume 6 (disc 1)"
FILE "Various - Instrumental Gold Collection, Volume 6 (disc 1).ape" WAVE
  TRACK 01 AUDIO
    TITLE "The Sicilian Clan"
    PERFORMER "Ennio Morricone"
    FLAGS DCP
    INDEX 01 00:00:00
  TRACK 02 AUDIO
    TITLE "Natacha"
    PERFORMER "Francis Goya"
    FLAGS DCP
    INDEX 01 04:00:52
  TRACK 03 AUDIO
    TITLE "Caruso"
    PERFORMER "Neal Schon"
    FLAGS DCP
    INDEX 01 06:49:67
  TRACK 04 AUDIO
    TITLE "Irena's Theme"
    PERFORMER "Giorgio Moroder"
    FLAGS DCP
    INDEX 01 12:32:26
  TRACK 05 AUDIO
    TITLE "My All"
    PERFORMER "Kirk Whalum"
    FLAGS DCP
    INDEX 01 16:49:64
  TRACK 06 AUDIO
    TITLE "La Cumparisa"
    PERFORMER "Richard Clauderman"
    FLAGS DCP
    INDEX 01 20:50:17
  TRACK 07 AUDIO
    TITLE "Moon River"
    PERFORMER "Helmut Zacharias"
    FLAGS DCP
    INDEX 01 24:04:42
  TRACK 08 AUDIO
    TITLE "Old Home Movie"
    PERFORMER "Goran Bregovic"
    FLAGS DCP
    INDEX 01 26:53:64
  TRACK 09 AUDIO
    TITLE "Spanish Rose"
    PERFORMER "Ed Calle"
    FLAGS DCP
    INDEX 01 31:59:18
  TRACK 10 AUDIO
    TITLE "Bridge of Dreams"
    PERFORMER "3rd Force"
    FLAGS DCP
    INDEX 01 36:57:70
  TRACK 11 AUDIO
    TITLE "Tiko-Tiko"
    PERFORMER "Milan Koren"
    FLAGS DCP
    INDEX 01 41:16:55
  TRACK 12 AUDIO
    TITLE "Bogota"
    PERFORMER "Gil Ventura"
    FLAGS DCP
    INDEX 01 46:06:05
  TRACK 13 AUDIO
    TITLE "Andrea With the Flowered Bag"
    PERFORMER "Tim Timmermans"
    FLAGS DCP
    INDEX 01 49:01:19
  TRACK 14 AUDIO
    TITLE "Psyche"
    PERFORMER "Chris Spheeris"
    FLAGS DCP
    INDEX 01 53:08:63
  TRACK 15 AUDIO
    TITLE "Slovanie Dance Nr. 10"
    PERFORMER "James Last"
    FLAGS DCP
    INDEX 01 58:01:72
  TRACK 16 AUDIO
    TITLE "Limehouse Blues"
    PERFORMER "Chet Atkins & Les Paul"
    FLAGS DCP
    INDEX 01 60:20:27
  TRACK 17 AUDIO
    TITLE "Tears in the Rain"
    PERFORMER "Joe Satriani"
    FLAGS DCP
    INDEX 01 63:10:21
  TRACK 18 AUDIO
    TITLE "Armonie"
    PERFORMER "Rondo Veneziano"
    FLAGS DCP
    INDEX 01 64:30:24
  TRACK 19 AUDIO
    TITLE "De Vogeltjesdans"
    PERFORMER "Jan Holland"
    FLAGS DCP
    INDEX 01 67:07:66
  TRACK 20 AUDIO
    TITLE "Medley"
    PERFORMER "Max Gregor"
    FLAGS DCP
    INDEX 01 69:21:36

CD 2

продолжительность: 01:16:39
01.Sant-Preux - No More Nadine (07:23)
02.Andreas Vollenweider - Anggh! (02:44)
03.Propellerheads - Crach! (06:58)
04.Richard Wright - Waves (04:21)
05.Bob James & Earl Сlugh - Kari (06:28)
06.Acoustic Alchemy - Mr. Chow (03:08)
07.Rondo Veneziano - Bettina (03:12)
08.Space - On the Air (03:29)
09.Ricky King - Primavera (03:08)
10.Yanni - The Flame Within (05:55)
11.Vangelis - Love Theme (04:55)
12.Novo Menco - Tigris Palaсe (04:28)
13.Jan Holland - Lambada (03:25)
14.Keiko Matsui - Whisper From the Mirror (04:38)
15.Isao Tomita - Peer Gynt: Solveg's Song (04:47)
16.Oystein Sevag - Norwegian Mountains (03:41)
17.Rick Wakeman - Sea Horses (03:53)

Лог создания рипа

Код:
Exact Audio Copy V0.99 prebeta 5 from 4. May 2009
Отчёт EAC об извлечении, выполненном 23. августа 2009, 11:45
Various / Instrumental Gold Collection, Volume 6 (disc 2)
Дисковод: PIONEER DVD-RW  DVR-216D   Adapter: 0  ID: 0
Режим чтения                 : Достоверность
Использование точного потока : Да
Отключение кэша аудио        : Да
Использование указателей C2  : Нет
Коррекция смещения при чтении                     : 96
Способность читать области Lead-in и Lead-out     : Нет
Заполнение пропущенных сэмплов тишиной            : Да
Удаление блоков с тишиной в начале и конце        : Нет
При вычислениях CRC использовались нулевые сэмплы : Да
Интерфейс                                         : Установленный внешний ASPI-интерфейс
Выходной формат : Внутренние WAV-операции
Формат сэмплов  : 44.100 Гц; 16 бит; стерео
TOC извлечённого CD
     Трек |   Старт  | Длительность | Начальный сектор | Конечный сектор
    ---------------------------------------------------------------------
       1  |  0:00.00 |    7:23.25   |           0      |      33249
       2  |  7:23.25 |    2:44.23   |       33250      |      45572
       3  | 10:07.48 |    6:58.13   |       45573      |      76935
       4  | 17:05.61 |    4:21.11   |       76936      |      96521
       5  | 21:26.72 |    6:28.35   |       96522      |     125656
       6  | 27:55.32 |    3:08.46   |      125657      |     139802
       7  | 31:04.03 |    3:12.15   |      139803      |     154217
       8  | 34:16.18 |    3:29.01   |      154218      |     169893
       9  | 37:45.19 |    3:08.70   |      169894      |     184063
      10  | 40:54.14 |    5:55.27   |      184064      |     210715
      11  | 46:49.41 |    4:55.47   |      210716      |     232887
      12  | 51:45.13 |    4:28.38   |      232888      |     253025
      13  | 56:13.51 |    3:25.45   |      253026      |     268445
      14  | 59:39.21 |    4:38.15   |      268446      |     289310
      15  | 64:17.36 |    4:47.10   |      289311      |     310845
      16  | 69:04.46 |    3:41.04   |      310846      |     327424
      17  | 72:45.50 |    3:53.72   |      327425      |     344971
Характеристики диапазона извлечения и сообщения об ошибках
Выбранный диапазон
     Имя файла D:\DVD\Раздачи торрентов\Instrumental Gold Collection - World's Best Hits\Том 6\CD 2\Various - Instrumental Gold Collection, Volume 6 (disc 2).wav
     Пиковый уровень 100.0 %
     Качество диапазона 99.9 %
     CRC копии 011DCD86
     Копирование... OK
Ошибок не произошло
Конец отчёта

Содержание индексной карты *cue

Код:
REM GENRE Instrumental
REM DATE 2001
REM DISCID 0D11F711
REM COMMENT "ExactAudioCopy v0.99pb5"
PERFORMER "Various"
TITLE "Instrumental Gold Collection, Volume 6 (disc 2)"
FILE "Various - Instrumental Gold Collection, Volume 6 (disc 2).ape" WAVE
  TRACK 01 AUDIO
    TITLE "No More Nadine"
    PERFORMER "Sant-Preux"
    FLAGS DCP
    INDEX 01 00:00:00
  TRACK 02 AUDIO
    TITLE "Anggh!"
    PERFORMER "Andreas Vollenweider"
    FLAGS DCP
    INDEX 01 07:23:25
  TRACK 03 AUDIO
    TITLE "Crach!"
    PERFORMER "Propellerheads"
    FLAGS DCP
    INDEX 01 10:07:48
  TRACK 04 AUDIO
    TITLE "Waves"
    PERFORMER "Richard Wright"
    FLAGS DCP
    INDEX 01 17:05:61
  TRACK 05 AUDIO
    TITLE "Kari"
    PERFORMER "Bob James & Earl Сlugh"
    FLAGS DCP
    INDEX 01 21:26:72
  TRACK 06 AUDIO
    TITLE "Mr. Chow"
    PERFORMER "Acoustic Alchemy"
    FLAGS DCP
    INDEX 01 27:55:32
  TRACK 07 AUDIO
    TITLE "Bettina"
    PERFORMER "Rondo Veneziano"
    FLAGS DCP
    INDEX 01 31:04:03
  TRACK 08 AUDIO
    TITLE "On the Air"
    PERFORMER "Space"
    FLAGS DCP
    INDEX 01 34:16:18
  TRACK 09 AUDIO
    TITLE "Primavera"
    PERFORMER "Ricky King"
    FLAGS DCP
    INDEX 01 37:45:19
  TRACK 10 AUDIO
    TITLE "The Flame Within"
    PERFORMER "Yanni"
    FLAGS DCP
    INDEX 01 40:54:14
  TRACK 11 AUDIO
    TITLE "Love Theme"
    PERFORMER "Vangelis"
    FLAGS DCP
    INDEX 01 46:49:41
  TRACK 12 AUDIO
    TITLE "Tigris Palaсe"
    PERFORMER "Novo Menco"
    FLAGS DCP
    INDEX 01 51:45:13
  TRACK 13 AUDIO
    TITLE "Lambada"
    PERFORMER "Jan Holland"
    FLAGS DCP
    INDEX 01 56:13:51
  TRACK 14 AUDIO
    TITLE "Whisper From the Mirror"
    PERFORMER "Keiko Matsui"
    FLAGS DCP
    INDEX 01 59:39:21
  TRACK 15 AUDIO
    TITLE "Peer Gynt: Solveg's Song"
    PERFORMER "Isao Tomita"
    FLAGS DCP
    INDEX 01 64:17:36
  TRACK 16 AUDIO
    TITLE "Norwegian Mountains"
    PERFORMER "Oystein Sevag"
    FLAGS DCP
    INDEX 01 69:04:46
  TRACK 17 AUDIO
    TITLE "Sea Horses"
    PERFORMER "Rick Wakeman"
    FLAGS DCP
    INDEX 01 72:45:50
-- --

_________________
Other forum [Profile] [PM]
Display posts from previous:    
Reply to topic

The time now is: Today 16:02

All times are GMT + 3 Hours



You cannot post new topics in this forum
You cannot reply to topics in this forum
You cannot edit your posts in this forum
You cannot delete your posts in this forum
You cannot vote in polls in this forum
You cannot attach files in this forum
You cannot download files in this forum