Today is a free download without charge Download

(Instrumental) VA - Instrumental Gold Collection - World's Best Hits, Volume 7 (2CD) - 2001, APE (image + .cue), lossless

Reply to topic
 
Author
Message

sergej644 ®

Gender:

Longevity: 7 years

Posts: 629

Торрент-статистика

Post 07-Dec-2012 10:09

[Quote]

-VA - Instrumental Gold Collection, Volume 7 (2CD)-
Страна: All World
Жанр: Instrumental
Год выпуска: 2001
Формат: APE (image + .cue)
Битрейт аудио: lossless
Продолжительность: 02:35:35
-Трэклист:-

CD 1

продолжительность: 01:18:25
01.Lee Ritenour - Bosscity (04:47)
02.Fausto Papeti - Petite Fleur (03:34)
03.Sting - Saint Agnes And The Burning Train (02:43)
04.Marcus Miller - Come Together (05:15)
05.Mark Knopfler - Smooching (05:01)
06.Danney Alkana - Spring (Vivaldi) (04:25)
07.W. Galison - Julia (03:28)
08.Earl Scruggs - Foggy Mountain Breakdown (04:47)
09.Steve Ray Vaughan - Scuttle Buttin (01:51)
10.Emerson, Lake & Palmer - Maple Leaf Rag (02:01)
11.Mike Oldfield - Dark Island (trad.) (05:38)
12.Sukay - Concepcion (03:47)
13.Mythos - Prelude (02:36)
14.Keith Emerson - Hello Sailor (04:36)
15.Yes - Mood For A Day (02:57)
16.Jan Holland - Melody In F (Rubinstein) (02:24)
17.Robern Michael - Sunset Samba (04:06)
18.Van Hallen - 316 (01:26)
19.Art Of Noise - Peter Gun (03:55)
20.Armic - Miracles (04:52)
21.Earl Klugh - Maybe Tonight (04:04)

Лог создания рипа

Код:
Exact Audio Copy V0.99 prebeta 5 from 4. May 2009
Отчёт EAC об извлечении, выполненном 23. августа 2009, 12:33
Various / Instrumental Gold Collection, Volume 7 (disc 1)
Дисковод: PIONEER DVD-RW  DVR-216D   Adapter: 0  ID: 0
Режим чтения                 : Достоверность
Использование точного потока : Да
Отключение кэша аудио        : Да
Использование указателей C2  : Нет
Коррекция смещения при чтении                     : 96
Способность читать области Lead-in и Lead-out     : Нет
Заполнение пропущенных сэмплов тишиной            : Да
Удаление блоков с тишиной в начале и конце        : Нет
При вычислениях CRC использовались нулевые сэмплы : Да
Интерфейс                                         : Установленный внешний ASPI-интерфейс
Выходной формат : Внутренние WAV-операции
Формат сэмплов  : 44.100 Гц; 16 бит; стерео
TOC извлечённого CD
     Трек |   Старт  | Длительность | Начальный сектор | Конечный сектор
    ---------------------------------------------------------------------
       1  |  0:00.00 |    4:47.58   |           0      |      21582
       2  |  4:47.58 |    3:34.11   |       21583      |      37643
       3  |  8:21.69 |    2:43.25   |       37644      |      49893
       4  | 11:05.19 |    5:15.25   |       49894      |      73543
       5  | 16:20.44 |    5:01.35   |       73544      |      96153
       6  | 21:22.04 |    4:25.65   |       96154      |     116093
       7  | 25:47.69 |    3:28.38   |      116094      |     131731
       8  | 29:16.32 |    4:47.50   |      131732      |     153306
       9  | 34:04.07 |    1:51.44   |      153307      |     161675
      10  | 35:55.51 |    2:01.48   |      161676      |     170798
      11  | 37:57.24 |    5:38.64   |      170799      |     196212
      12  | 43:36.13 |    3:47.66   |      196213      |     213303
      13  | 47:24.04 |    2:36.17   |      213304      |     225020
      14  | 50:00.21 |    4:36.10   |      225021      |     245730
      15  | 54:36.31 |    2:57.54   |      245731      |     259059
      16  | 57:34.10 |    2:24.35   |      259060      |     269894
      17  | 59:58.45 |    4:06.70   |      269895      |     288414
      18  | 64:05.40 |    1:26.69   |      288415      |     294933
      19  | 65:32.34 |    3:55.47   |      294934      |     312605
      20  | 69:28.06 |    4:52.34   |      312606      |     334539
      21  | 74:20.40 |    4:04.45   |      334540      |     352884
Характеристики диапазона извлечения и сообщения об ошибках
Выбранный диапазон
     Имя файла D:\DVD\Раздачи торрентов\Instrumental Gold Collection - World's Best Hits\Том 7\CD 1\Various - Instrumental Gold Collection, Volume 7 (disc 1).wav
     Пиковый уровень 100.0 %
     Качество диапазона 100.0 %
     CRC копии CBBB274F
     Копирование... OK
Ошибок не произошло
Конец отчёта

Содержание индексной карты *cue

Код:
REM GENRE Instrumental
REM DATE 2001
REM DISCID 48126115
REM COMMENT "ExactAudioCopy v0.99pb5"
PERFORMER "Various"
TITLE "Instrumental Gold Collection, Volume 7 (disc 1)"
FILE "Various - Instrumental Gold Collection, Volume 7 (disc 1).ape" WAVE
  TRACK 01 AUDIO
    TITLE "Bosscity"
    PERFORMER "Lee Ritenour"
    FLAGS DCP
    INDEX 01 00:00:00
  TRACK 02 AUDIO
    TITLE "Petite Fleur"
    PERFORMER "Fausto Papeti"
    FLAGS DCP
    INDEX 01 04:47:58
  TRACK 03 AUDIO
    TITLE "Saint Agnes And The Burning Train"
    PERFORMER "Sting"
    FLAGS DCP
    INDEX 01 08:21:69
  TRACK 04 AUDIO
    TITLE "Come Together"
    PERFORMER "Marcus Miller"
    FLAGS DCP
    INDEX 01 11:05:19
  TRACK 05 AUDIO
    TITLE "Smooching"
    PERFORMER "Mark Knopfler"
    FLAGS DCP
    INDEX 01 16:20:44
  TRACK 06 AUDIO
    TITLE "Spring (Vivaldi)"
    PERFORMER "Danney Alkana"
    FLAGS DCP
    INDEX 01 21:22:04
  TRACK 07 AUDIO
    TITLE "Julia"
    PERFORMER "W. Galison"
    FLAGS DCP
    INDEX 01 25:47:69
  TRACK 08 AUDIO
    TITLE "Foggy Mountain Breakdown"
    PERFORMER "Earl Scruggs"
    FLAGS DCP
    INDEX 01 29:16:32
  TRACK 09 AUDIO
    TITLE "Scuttle Buttin"
    PERFORMER "Steve Ray Vaughan"
    FLAGS DCP
    INDEX 01 34:04:07
  TRACK 10 AUDIO
    TITLE "Maple Leaf Rag"
    PERFORMER "Emerson, Lake & Palmer"
    FLAGS DCP
    INDEX 01 35:55:51
  TRACK 11 AUDIO
    TITLE "Dark Island (trad.)"
    PERFORMER "Mike Oldfield"
    FLAGS DCP
    INDEX 01 37:57:24
  TRACK 12 AUDIO
    TITLE "Concepcion"
    PERFORMER "Sukay"
    FLAGS DCP
    INDEX 01 43:36:13
  TRACK 13 AUDIO
    TITLE "Prelude"
    PERFORMER "Mythos"
    FLAGS DCP
    INDEX 01 47:24:04
  TRACK 14 AUDIO
    TITLE "Hello Sailor"
    PERFORMER "Keith Emerson"
    FLAGS DCP
    INDEX 01 50:00:21
  TRACK 15 AUDIO
    TITLE "Mood For A Day"
    PERFORMER "Yes"
    FLAGS DCP
    INDEX 01 54:36:31
  TRACK 16 AUDIO
    TITLE "Melody In F (Rubinstein)"
    PERFORMER "Jan Holland"
    FLAGS DCP
    INDEX 01 57:34:10
  TRACK 17 AUDIO
    TITLE "Sunset Samba"
    PERFORMER "Robern Michael"
    FLAGS DCP
    INDEX 01 59:58:45
  TRACK 18 AUDIO
    TITLE "316"
    PERFORMER "Van Hallen"
    FLAGS DCP
    INDEX 01 64:05:40
  TRACK 19 AUDIO
    TITLE "Peter Gun"
    PERFORMER "Art Of Noise"
    FLAGS DCP
    INDEX 01 65:32:34
  TRACK 20 AUDIO
    TITLE "Miracles"
    PERFORMER "Armic"
    FLAGS DCP
    INDEX 01 69:28:06
  TRACK 21 AUDIO
    TITLE "Maybe Tonight"
    PERFORMER "Earl Klugh"
    FLAGS DCP
    INDEX 01 74:20:40

CD 2

продолжительность: 01:17:10
01.Melvin Taylor - Tequila (02:44)
02.Ritchie Blackmore - Practorius (Courante) (01:55)
03.Morcheeba - Coming Down Gently (04:19)
04.Yello - Hawayian Chance (04:23)
05.Ginkgo Garden - Aquamarine Lake (04:07)
06.Danney Alkana - A Little Serenade (Mozart) (04:51)
07.Warren Hill - Hey Jude (05:28)
08.Carlos Santana - En Aranjuez Con Tu Amor (05:55)
09.Jan Holland - Bumble Bee Flight (R.-Korsakov) (01:14)
10.The Ventures - The William Tell Overture (Rossini) (03:12)
11.Chuck Loeb - Steffi's Strut (05:22)
12.Mike Oldfield - The Voyager (04:22)
13.Armik - Rubia (05:15)
14.Sarah Vaughan - Hey Jude (01:10)
15.Modern Gustin Trio - Ticket To Ride (03:49)
16.Fausto Papetti - Just The Way You Are (03:54)
17.Vanessa Mae - Classical Gas (03:16)
18.Ricky King - Aria (Bach) (03:00)
19.Emerson, Lake & Palmer - Honky Tonk Train Blues (03:10)
20.Mike Oldfield - Portsmouth (02:06)
21.Mythos - Sirens (03:29)

Лог создания рипа

Код:
Exact Audio Copy V0.99 prebeta 5 from 4. May 2009
Отчёт EAC об извлечении, выполненном 23. августа 2009, 13:23
Various / Instrumental Gold Collection, Volume 7 (disc 2)
Дисковод: PIONEER DVD-RW  DVR-216D   Adapter: 0  ID: 0
Режим чтения                 : Достоверность
Использование точного потока : Да
Отключение кэша аудио        : Да
Использование указателей C2  : Нет
Коррекция смещения при чтении                     : 96
Способность читать области Lead-in и Lead-out     : Нет
Заполнение пропущенных сэмплов тишиной            : Да
Удаление блоков с тишиной в начале и конце        : Нет
При вычислениях CRC использовались нулевые сэмплы : Да
Интерфейс                                         : Установленный внешний ASPI-интерфейс
Выходной формат : Внутренние WAV-операции
Формат сэмплов  : 44.100 Гц; 16 бит; стерео
TOC извлечённого CD
     Трек |   Старт  | Длительность | Начальный сектор | Конечный сектор
    ---------------------------------------------------------------------
       1  |  0:00.00 |    2:44.18   |           0      |      12317
       2  |  2:44.18 |    1:55.62   |       12318      |      21004
       3  |  4:40.05 |    4:19.31   |       21005      |      40460
       4  |  8:59.36 |    4:23.19   |       40461      |      60204
       5  | 13:22.55 |    4:07.57   |       60205      |      78786
       6  | 17:30.37 |    4:51.38   |       78787      |     100649
       7  | 22:22.00 |    5:28.47   |      100650      |     125296
       8  | 27:50.47 |    5:55.25   |      125297      |     151946
       9  | 33:45.72 |    1:14.29   |      151947      |     157525
      10  | 35:00.26 |    3:12.35   |      157526      |     171960
      11  | 38:12.61 |    5:22.52   |      171961      |     196162
      12  | 43:35.38 |    4:22.17   |      196163      |     215829
      13  | 47:57.55 |    5:15.50   |      215830      |     239504
      14  | 53:13.30 |    1:10.35   |      239505      |     244789
      15  | 54:23.65 |    3:49.51   |      244790      |     262015
      16  | 58:13.41 |    3:54.13   |      262016      |     279578
      17  | 62:07.54 |    3:16.71   |      279579      |     294349
      18  | 65:24.50 |    3:00.47   |      294350      |     307896
      19  | 68:25.22 |    3:10.02   |      307897      |     322148
      20  | 71:35.24 |    2:06.15   |      322149      |     331613
      21  | 73:41.39 |    3:29.20   |      331614      |     347308
Характеристики диапазона извлечения и сообщения об ошибках
Выбранный диапазон
     Имя файла D:\DVD\Раздачи торрентов\Instrumental Gold Collection - World's Best Hits\Том 7\CD 2\Various - Instrumental Gold Collection, Volume 7 (disc 2).wav
     Пиковый уровень 100.0 %
     Качество диапазона 99.9 %
     CRC копии B1E96FB8
     Копирование... OK
Ошибок не произошло
Конец отчёта

Содержание индексной карты *cue

Код:
REM GENRE Instrumental
REM DATE 2001
REM DISCID 30121615
REM COMMENT "ExactAudioCopy v0.99pb5"
PERFORMER "Various"
TITLE "Instrumental Gold Collection, Volume 7 (disc 2)"
FILE "Various - Instrumental Gold Collection, Volume 7 (disc 2).ape" WAVE
  TRACK 01 AUDIO
    TITLE "Tequila"
    PERFORMER "Melvin Taylor"
    FLAGS DCP
    INDEX 01 00:00:00
  TRACK 02 AUDIO
    TITLE "Practorius (Courante)"
    PERFORMER "Ritchie Blackmore"
    FLAGS DCP
    INDEX 01 02:44:18
  TRACK 03 AUDIO
    TITLE "Coming Down Gently"
    PERFORMER "Morcheeba"
    FLAGS DCP
    INDEX 01 04:40:05
  TRACK 04 AUDIO
    TITLE "Hawayian Chance"
    PERFORMER "Yello"
    FLAGS DCP
    INDEX 01 08:59:36
  TRACK 05 AUDIO
    TITLE "Aquamarine Lake"
    PERFORMER "Ginkgo Garden"
    FLAGS DCP
    INDEX 01 13:22:55
  TRACK 06 AUDIO
    TITLE "A Little Serenade (Mozart)"
    PERFORMER "Danney Alkana"
    FLAGS DCP
    INDEX 01 17:30:37
  TRACK 07 AUDIO
    TITLE "Hey Jude"
    PERFORMER "Warren Hill"
    FLAGS DCP
    INDEX 01 22:22:00
  TRACK 08 AUDIO
    TITLE "En Aranjuez Con Tu Amor"
    PERFORMER "Carlos Santana"
    FLAGS DCP
    INDEX 01 27:50:47
  TRACK 09 AUDIO
    TITLE "Bumble Bee Flight (R.-Korsakov)"
    PERFORMER "Jan Holland"
    FLAGS DCP
    INDEX 01 33:45:72
  TRACK 10 AUDIO
    TITLE "The William Tell Overture (Rossini)"
    PERFORMER "The Ventures"
    FLAGS DCP
    INDEX 01 35:00:26
  TRACK 11 AUDIO
    TITLE "Steffi's Strut"
    PERFORMER "Chuck Loeb"
    FLAGS DCP
    INDEX 01 38:12:61
  TRACK 12 AUDIO
    TITLE "The Voyager"
    PERFORMER "Mike Oldfield"
    FLAGS DCP
    INDEX 01 43:35:38
  TRACK 13 AUDIO
    TITLE "Rubia"
    PERFORMER "Armik"
    FLAGS DCP
    INDEX 01 47:57:55
  TRACK 14 AUDIO
    TITLE "Hey Jude"
    PERFORMER "Sarah Vaughan"
    FLAGS DCP
    INDEX 01 53:13:30
  TRACK 15 AUDIO
    TITLE "Ticket To Ride"
    PERFORMER "Modern Gustin Trio"
    FLAGS DCP
    INDEX 01 54:23:65
  TRACK 16 AUDIO
    TITLE "Just The Way You Are"
    PERFORMER "Fausto Papetti"
    FLAGS DCP
    INDEX 01 58:13:41
  TRACK 17 AUDIO
    TITLE "Classical Gas"
    PERFORMER "Vanessa Mae"
    FLAGS DCP
    INDEX 01 62:07:54
  TRACK 18 AUDIO
    TITLE "Aria (Bach)"
    PERFORMER "Ricky King"
    FLAGS DCP
    INDEX 01 65:24:50
  TRACK 19 AUDIO
    TITLE "Honky Tonk Train Blues"
    PERFORMER "Emerson, Lake & Palmer"
    FLAGS DCP
    INDEX 01 68:25:22
  TRACK 20 AUDIO
    TITLE "Portsmouth"
    PERFORMER "Mike Oldfield"
    FLAGS DCP
    INDEX 01 71:35:24
  TRACK 21 AUDIO
    TITLE "Sirens"
    PERFORMER "Mythos"
    FLAGS DCP
    INDEX 01 73:41:39
-- --

_________________
Other forum [Profile] [PM]
Display posts from previous:    
Reply to topic

The time now is: Today 15:14

All times are GMT + 3 Hours



You cannot post new topics in this forum
You cannot reply to topics in this forum
You cannot edit your posts in this forum
You cannot delete your posts in this forum
You cannot vote in polls in this forum
You cannot attach files in this forum
You cannot download files in this forum