Сегодня идет свободное скачивание без начисления Download

Соломон и Шеба / Соломон и царица Савская / Solomon and Sheba (1959) DVDRip

Ответить на тему
 
Автор
Сообщение

Omen ®

Стаж: 4 года 1 месяц

Сообщений: 194390

Торрент-статистика

Пост 09-Янв-2013 04:24

[Цитировать]

-Соломон и Шеба / Соломон и царица Савская / Solomon and Sheba (1959) DVDRip- Русское название: Соломон и Шеба / Соломон и царица Савская
Оригинальное название: Solomon and Sheba
Год выпуска: 1959
Жанр: Драма, Исторический
Страна: США, Metro-Goldwyn-Mayer
Описание фильма:
Этот библейский эпос, поставленный режиссером Кингом Видором является
кинематографическим осмыслением плотских грехов и языческих богопреклонений.
Картина, снятая в Испании, запечатлела подвиги незабвенных персонажей.
Юл Бриннер олицетворяет здесь сильного и идеалистического Соломона.
А чувственная Джина Лоллобриджида — великолепна в роли величественной и
соблазнительной Царицы.
Библейские времена. Царь Древнего Израиля Давид перед смертью получает
знамение, что его младший сын, Соломон должен возглавить государство. Эта
ситуация не устраивает старшего сына Давида - Адония, который объединяется с
врагами Израиля, обеспокоенными растущим влиянием государства, возглавляемого
мудрым Соломоном. Соломон готов справится со всеми трудностями, но его
соблазняет неотразимая царица Савская...
Режиссер: Кинг Видор / King Vidor
Актеры: Юл Бриннер, Джина Лоллобриджида, Джордж Сандерс, Мариса Паван, Дэвид Фаррар, Джон Кроуфорд, Финлэй Карри, Гарри Эндрюс, Хосе Ньето.
Продолжительность: 02:15:40
Перевод: Многоголосый закадровый ( 5-й канал СПб)

Дата мировой премьеры: 24 ноября 1959
Видеокодек: Xvid
Битрейт видео: ~1 348 Kbps
Размер кадра: 688х304
Качество видео: DVDRip
Аудиокодек: AC3 2 ch
Битрейт аудио: 192 Kbps
Исходник DVD9,PAL 16:9 (720x576) VBR
Сэмпл: Ссылка

Медиаинфо

Format : AVI
Format/Info : Audio Video Interleave
File size : 1.47 GiB
Duration : 2h 15mn
Overall bit rate : 1 549 Kbps
Director : CrimeanFox
Writing library : VirtualDub build 32706/release
Copyright : vanila
Video
ID : 0
Format : MPEG-4 Visual
Format profile : Advanced [email protected]
Format settings, BVOP : 2
Format settings, QPel : No
Format settings, GMC : No warppoints
Format settings, Matrix : Default (MPEG)
Codec ID : XVID
Codec ID/Hint : XviD
Duration : 2h 15mn
Bit rate : 1 348 Kbps
Width : 688 pixels
Height : 304 pixels
Display aspect ratio : 2.25:1
Frame rate : 25.000 fps
Color space : YUV
Chroma subsampling : 4:2:0
Bit depth : 8 bits
Scan type : Progressive
Compression mode : Lossy
Bits/(Pixel*Frame) : 0.258
Stream size : 1.28 GiB (87%)
Writing library : XviD 65
Audio
ID : 1
Format : AC-3
Format/Info : Audio Coding 3
Mode extension : CM (complete main)
Format settings, Endianness : Big
Codec ID : 2000
Duration : 2h 15mn
Bit rate mode : Constant
Bit rate : 192 Kbps
Channel(s) : 2 channels
Channel positions : Front: L R
Sampling rate : 48.0 KHz
Bit depth : 16 bits
Compression mode : Lossy
Stream size : 186 MiB (12%)
Alignment : Aligned on interleaves
Interleave, duration : 40 ms (1.00 video frame)
Interleave, preload duration : 512 ms
Скриншоты:
         
         
Время раздачи: с 10:00 до 24:00
Вне форума [Профиль] [ЛС]
Показать сообщения:    
Ответить на тему

Текущее время: Сегодня 13:33

Часовой пояс: GMT + 3



Вы не можете начинать темы
Вы не можете отвечать на сообщения
Вы не можете редактировать свои сообщения
Вы не можете удалять свои сообщения
Вы не можете голосовать в опросах
Вы не можете прикреплять файлы к сообщениям
Вы не можете скачивать файлы