Сегодня идет свободное скачивание без начисления Download

Так держать, медсестра / Carry on Nurse (1959) DVDRip

Ответить на тему
 
Автор
Сообщение

Omen ®

Стаж: 4 года 1 месяц

Сообщений: 194382

Торрент-статистика

Пост 09-Янв-2013 04:32

[Цитировать]

-Так держать, медсестра / Carry on Nurse (1959) DVDRip- Русское название: Так держать, медсестра
Оригинальное название: Carry on Nurse
Год выпуска: 1959
Страна: Великобритания
Жанр: мелодрама, комедия
Перевод: Профессиональный (полное дублирование)-
Премьера: 10 марта 1959
Режиссер: Джералд Томас
Актеры: Кеннет Коннор, Ширли Итон, Чарльз Хоутри, Хэтти Жак, Теренс Лонгдон, Билл Оуэн, Лесли Филлипс, Джоэн Симс, Сьюзэн Стивен, Кеннет Уильямс, Уилфрид Хайд-Уайт, Сьюзэн Бомонт, Энн Файрбэнк, Джоан Хиксон, Сирил Чемберлен, Гарри Лок, Норман Россингтон, Брайан Оултон, Сьюзэн Шоу (II), Джилл Айрленд, Ирен Хандл, Майкл Медвин, Джон Ван Эйссен, Марианна Стоун, Розалинд Найт, Джун Уайтфилд, Хильда Фенемор

Описание фильма:
В госпитале «Приют» одна из мужских палат причиняет больше проблем, чем весь остальной госпиталь. Огромная медсестра наводит ужас на всех пациентов, и только Рекитт противостоит ей. Среди прочих персонажей: майор, который является для всех постоянной неприятностью, неуклюжая медсестра, влюбленные Тед Йорк и медсестра Дентон, и Белл, который требует срочно сделать ему операцию. Однажды, после пьянки, мужчины из этой палаты решают помочь Беллу…
-Продолжительность: 01:22:57
Качество видео: DVDRip
Формат: AVI
Видеокодек: DivX
Битрейт видео: ~2108 kbps avg, 25,000 fps
Размер кадра: 640х384 (1.667)
Аудиокодек: AC3
Аудио: русский: 48 kHz, AC3, 2 ch, 192 kbps
Субтитры: нет

Дополнительно:

Перевод: Профессиональный (дублированный) + любительский на непереведенные моменты (Вячеслав Саввов)

MediaInfo:

Format : AVI
Format/Info : Audio Video Interleave
File size : 1.34 GiB
Duration : 1h 22mn
Overall bit rate : 2 309 Kbps
Writing application : VirtualDubMod 1.5.10.2 (build 2540/release)
Writing library : VirtualDubMod build 2540/release
Video
ID : 0
Format : MPEG-4 Visual
Format settings, BVOP : 1
Format settings, QPel : No
Format settings, GMC : No warppoints
Format settings, Matrix : Default (H.263)
Muxing mode : Packed bitstream
Codec ID : DX50
Codec ID/Hint : DivX 5
Duration : 1h 22mn
Bit rate : 2 108 Kbps
Width : 640 pixels
Height : 384 pixels
Display aspect ratio : 1.667
Frame rate : 25.000 fps
Color space : YUV
Chroma subsampling : 4:2:0
Bit depth : 8 bits
Scan type : Progressive
Compression mode : Lossy
Bits/(Pixel*Frame) : 0.343
Stream size : 1.22 GiB (91%)
Writing library : DivX 5.1.1 (Maupiti) (UTC 2003-11-19)
Audio
ID : 1
Format : AC-3
Format/Info : Audio Coding 3
Mode extension : CM (complete main)
Format settings, Endianness : Big
Codec ID : 2000
Duration : 1h 22mn
Bit rate mode : Constant
Bit rate : 192 Kbps
Channel(s) : 2 channels
Channel positions : Front: L R
Sampling rate : 48.0 KHz
Bit depth : 16 bits
Compression mode : Lossy
Stream size : 114 MiB (8%)
Alignment : Split accross interleaves
Interleave, duration : 40 ms (1.00 video frame)
Interleave, preload duration : 500 ms
Скриншоты:
         
         
24/7
Вне форума [Профиль] [ЛС]
Показать сообщения:    
Ответить на тему

Текущее время: Сегодня 20:23

Часовой пояс: GMT + 3



Вы не можете начинать темы
Вы не можете отвечать на сообщения
Вы не можете редактировать свои сообщения
Вы не можете удалять свои сообщения
Вы не можете голосовать в опросах
Вы не можете прикреплять файлы к сообщениям
Вы не можете скачивать файлы