Сегодня идет свободное скачивание без начисления Download

Пощечина / La gifle (1974) [H.264] DVDRip

Ответить на тему
 
Автор
Сообщение

Omen ®

Стаж: 4 года 1 месяц

Сообщений: 194382

Торрент-статистика

Пост 09-Янв-2013 04:44

[Цитировать]

-Пощечина / La gifle (1974) DVDRip- Русское название: Пощечина
Оригинальное название: La gifle
Год выпуска: 1974
Производство: Франция, Италия / Euro International Film (EIA), Gaumont, Production 2000
Жанр: Драма, Мелодрама, Комедия-Описание фильма:
С каждым такое бывает — наступит вдруг черная полоса в жизни, когда все, чего не коснись, плохо. Вот и на Жана Дулеана, преподавателя географии в лицее, неприятности посыпались одна за другой. В полиции на него завели дело (избил двух стражей закона, защищая студента) и ему грозит увольнение, любовница, с которой прекрасно ладил много лет, вдруг ушла, обожаемая 18-летняя дочь забросила учебу и собирается покинуть родной дом, чтобы поселиться с бойфрендом. Но жизнь, как известно, тем и прекрасна, что за черной полосой неизбежно следует белая…-Режиссер: Клод Пиното
Актеры: Лино Вентура, Анни Жирардо, Изабель Аджани, Николь Курсель, Жорж Вильсон, Франсис Перрен, Жак Списсер, Роберт Харди, Натали Бэй, Ксавье Желен-Продолжительность: 01:39:49
Перевод: Многоголосый закадровый
Язык субтитров: Русские
Вид субтитров: Вшитые (отключаемые)- -Дата мировой премьеры: 23 октября 1974
Дата выхода DVD релиза: 30 октября 2008, «Cinema Prestige»-Видеокодек: MPEG-4 AVC/H.264
Битрейт видео: ~1702 kb/s
Размер кадра: [email protected]
Качество видео: DVDRip
Аудио#1: 48 kHz, AC3, 2 ch, 192.00 kb/s Русский
Аудио#2: 48 kHz, AC3, 2 ch, 192.00 kb/s Французский

MediaInfo

Общее
Уникальный идентификатор : 241288233442270939854032510348164541560 (0xB5866C640A079D089D129F61E4572C78)
Полное имя : D:\Торрент раздача\Poshhechina.1974.DVDRip-AVC.mkv
Формат : Matroska
Версия формата : Version 2
Размер файла : 1,46 Гбайт
Продолжительность : 1 ч. 39 м.
Общий поток : 2088 Кбит/сек
Название фильма : Poshhechina.1974.DVDRip-AVC
Дата кодирования : UTC 2013-01-05 09:22:44
Программа кодирования : mkvmerge v5.8.0 ('No Sleep / Pillow') built on Sep 2 2012 15:37:04
Библиотека кодирования : libebml v1.2.3 + libmatroska v1.3.0
Видео
Идентификатор : 1
Формат : AVC
Формат/Информация : Advanced Video Codec
Профиль формата : [url=mailto:[email protected]][email protected][/url]
Параметр CABAC формата : Да
Параметр ReFrames формата : 11 кадров
Идентификатор кодека : V_MPEG4/ISO/AVC
Продолжительность : 1 ч. 39 м.
Битрейт : 1702 Кбит/сек
Ширина : 672 пикселя
Высота : 572 пикселя
Соотношение сторон : 1,680
Соотношение сторон в оригинале : 1,681
Режим частоты кадров : Постоянный
Частота кадров : 25,000 кадров/сек
Цветовое пространство : YUV
Субдискретизация насыщенности : 4:2:0
Битовая глубина : 8 бит
Тип развёртки : Прогрессивная
Бит/(Пиксели*Кадры) : 0.177
Размер потока : 1,16 Гбайт (80%)
Заголовок : Источник DVD
Библиотека кодирования : x264 core 119 r2106 07efeb4
Настройки программы : cabac=1 / ref=11 / deblock=1:-2:-1 / analyse=0x3:0x113 / me=umh / subme=9 / psy=1 / psy_rd=1.00:0.20 / mixed_ref=1 / me_range=32 / chroma_me=1 / trellis=1 / 8x8dct=1 / cqm=0 / deadzone=21,11 / fast_pskip=0 / chroma_qp_offset=-3 / threads=3 / sliced_threads=0 / nr=0 / decimate=0 / interlaced=0 / bluray_compat=0 / constrained_intra=0 / bframes=8 / b_pyramid=2 / b_adapt=2 / b_bias=0 / direct=3 / weightb=1 / open_gop=0 / weightp=2 / keyint=250 / keyint_min=25 / scenecut=40 / intra_refresh=0 / rc_lookahead=60 / rc=2pass / mbtree=1 / bitrate=1702 / ratetol=1.0 / qcomp=0.60 / qpmin=0 / qpmax=69 / qpstep=4 / cplxblur=20.0 / qblur=0.5 / ip_ratio=1.40 / aq=1:1.00
Язык : French
Default : Да
Forced : Нет
Аудио #1
Идентификатор : 2
Формат : AC-3
Формат/Информация : Audio Coding 3
Расширение режима : CM (complete main)
Параметр Endianness формата : Big
Идентификатор кодека : A_AC3
Продолжительность : 1 ч. 39 м.
Вид битрейта : Постоянный
Битрейт : 192 Кбит/сек
Каналы : 2 канала
Расположение каналов : Front: L R
Частота : 48,0 КГц
Битовая глубина : 16 бит
Метод сжатия : С потерями
Размер потока : 137 Мбайт (9%)
Заголовок : Источник DVD
Язык : Russian
Default : Да
Forced : Нет
Аудио #2
Идентификатор : 3
Формат : AC-3
Формат/Информация : Audio Coding 3
Расширение режима : CM (complete main)
Параметр Endianness формата : Big
Идентификатор кодека : A_AC3
Продолжительность : 1 ч. 39 м.
Вид битрейта : Постоянный
Битрейт : 192 Кбит/сек
Каналы : 2 канала
Расположение каналов : Front: L R
Частота : 48,0 КГц
Битовая глубина : 16 бит
Метод сжатия : С потерями
Размер потока : 137 Мбайт (9%)
Заголовок : Источник DVD
Язык : French
Default : Нет
Forced : Нет
Текст
Идентификатор : 4
Формат : UTF-8
Идентификатор кодека : S_TEXT/UTF8
Идентификатор кодека/Информация : UTF-8 Plain Text
Заголовок : Источник DVD
Язык : Russian
Default : Нет
Forced : Нет
Меню
00:00:00.000 : ru:00:00:00.000000000
00:05:00.000 : :00:05:00.000000000
00:10:00.000 : :00:10:00.000000000
00:15:00.000 : :00:15:00.000000000
00:20:00.000 : :00:20:00.000000000
00:25:00.000 : :00:25:00.000000000
00:30:00.000 : :00:30:00.000000000
00:35:00.000 : :00:35:00.000000000
00:40:00.000 : :00:40:00.000000000
00:45:00.000 : :00:45:00.000000000
00:50:00.000 : :00:50:00.000000000
00:55:00.000 : :00:55:00.000000000
01:00:00.000 : :01:00:00.000000000
01:05:00.000 : :01:05:00.000000000
01:10:00.000 : :01:10:00.000000000
01:15:00.000 : :01:15:00.000000000
01:20:00.000 : :01:20:00.000000000
01:25:00.000 : :01:25:00.000000000
01:30:00.000 : :01:30:00.000000000
01:35:00.000 : :01:35:00.000000000
Скриншоты:
                   
Время раздачи: 24/7
Вне форума [Профиль] [ЛС]
Показать сообщения:    
Ответить на тему

Текущее время: Сегодня 00:20

Часовой пояс: GMT + 3



Вы не можете начинать темы
Вы не можете отвечать на сообщения
Вы не можете редактировать свои сообщения
Вы не можете удалять свои сообщения
Вы не можете голосовать в опросах
Вы не можете прикреплять файлы к сообщениям
Вы не можете скачивать файлы