Сегодня идет свободное скачивание без начисления Download

Сестрички Долли / The Dolly Sisters (1945) DVDRip

Ответить на тему
 
Автор
Сообщение

Omen ®

Стаж: 4 года 1 месяц

Сообщений: 194382

Торрент-статистика

Пост 09-Янв-2013 04:44

[Цитировать]

-Сестрички Долли / The Dolly Sisters (1945) DVDRip- Русское название: Сестрички Долли
Оригинальное название: The Dolly Sisters
Производство: США / 20th Century Fox Film Corporation
Год выпуска: 1945
Жанр: Мьюзикл, драма, мелодрама, биография
Описание фильма:
Эта история началась в 1904 году, когда две сестры близняшки Янси и Рожичка под чутким руководством своего дядюшки начинают исполнять танцевально-музыкальные номера в венгерском кафе, выдавая себя за сестер из Будапешта. Проходят годы и они становятся звездами мирового масштаба и это все благодаря своему изворотливому дядюшке-импресарио, который умудрился обмануть самого Оскара Хаммерстайна — постановщика бродвейских шоу и добиться прослушивания для своих протеже…
Режиссер: Ирвинг Каммингс
Актеры: Бетти Грэйбл, Джон Пейн, Джун Хэвер, С.З. Сакалл, Реджинальд Гардинер, Фрэнк Латимор, Джин Шелдон, Сиг Руман, Труди Маршалл, Элмер, Лестер Аллен, Херберт Эшли, Нино Беллини, Труде Берлинер, Кэти Даунс, Мэри Куррье
.

Трейлер
Дата мировой премьеры: 5 октября 1945,
Дата выхода DVD релиза: 12 января 2009

Интересно

Сестры Долли реально существовавшие люди. Это были девочки-близнецы Роуз и Дженни, рожденные в Венгрии в 1892 году и эмигрировавшие в США в 1905 году. Они начали зарабатывать деньги, выступая в пивных залах еще в 1907 году. Девочки вынуждены были покинуть Нью-Йорк в связи с запретом на выступление несовершеннолетних и гастролировать с «Orpheum circuit» до 1909, пока они не дебютировали в водевиле, а в 1911 году уже подписали контракт с шоу Зигфилда на два сезона. В дополнение, к, примерно, пятнадцати фильмам с 1913 по 1920, они выступали в театрах и танцевальных залах Европы. Иногда они появлялись с отдельными партнерами как соперницы, чтобы увеличить продажу билетов. Они увлекались азартными играми и весьма успешно. Однажды они выиграли $ 850 000 за один сезон в Довиле и один вечер в Каннах. Дженни выиграла 4 миллиона франков, на которые она покупает коллекцию ювелирных изделий, а потом она еще выигрывает 11 миллионов.
Частная жизнь их была настолько же мелодраматичной, насколько карьера звездной. В 1933 году Дженни попадет в серьезную аварию вместе со своим любовником Максом, в результате чего перенесет 15 сложнейших операций, на оплату которых уйдет вся собранная ею коллекция ювелирных изделий, но так и не восстановит свою былую красоту. В результате 1 Мая 1941 года, она совершила самоубийство, повесившись в своем номере отеля Шелтон.
Как это часто бывает в случае с близнецами, Рози придется доказывать противоположную личность, отличную от мании взлетов и падений личности Дженни. Жить она будет достаточно долго, чтобы увидеть фильм-биографию, сделанный в 1945 году на основе их жизни и названный, неизбежно «Сестры Долли». Но в 1962 году Рози попыталась последовать за своей сестрой, совершив самоубийство, но неудачно... И она будет жить до 1 января 1970 года, пока не умрет от сердечной недостаточности.
Продолжительность: 01:54:19
Перевод: Многоголосый закадровый
Видеокодек: Xvid
Битрейт видео: ~1627 Кбит/сек
Размер кадра: 704x528
Качество видео: DVDRip
Аудио #1: AC3, 2 ch, 192 Кбит/с, Русский
Аудио #2: AC3, 2 ch, 192 Кбит/с, английский (отдельным файлом)

MediaInfo:

Общее
Полное имя : Sestrichki.Dolli.1945.XviD.DVDRip\Sestrichki.Dolli.1945.XviD.DVDRip.avi
Формат : AVI
Формат/Информация : Audio Video Interleave
Размер файла : 1,46 Гбайт
Продолжительность : 1 ч. 54 м.
Общий поток : 1828 Кбит/сек
Название фильма : Sestrichki.Dolli.1945.XviD.DVDRip.egoleshik
Режиссёр : Irving Cummings
Жанр : Comedy/Musical/Romance
Программа кодирования : VirtualDubMod 1.5.10.3 | www.virtualdub-fr.org || (build 2550/release)
Примечание : Thanks gafirst
Видео
Идентификатор : 0
Формат : MPEG-4 Visual
Профиль формата : Advanced [email protected]
Параметр BVOP формата : 2
Параметр QPel формата : Нет
Параметр GMC формата : Без точки перехода
Параметр матрицы формата : Default (MPEG)
Идентификатор кодека : XVID
Идентификатор кодека/Подсказка : XviD
Продолжительность : 1 ч. 54 м.
Битрейт : 1627 Кбит/сек
Ширина : 704 пикселя
Высота : 528 пикселей
Соотношение сторон : 4:3
Частота кадров : 23,976 кадра/сек
Цветовое пространство : YUV
Субдискретизация насыщенности : 4:2:0
Битовая глубина : 8 бит
Тип развёртки : Прогрессивная
Метод сжатия : С потерями
Бит/(Пиксели*Кадры) : 0.183
Размер потока : 1,30 Гбайт (89%)
Библиотека кодирования : XviD 1.2.1 (UTC 2008-12-04)
Аудио
Идентификатор : 1
Формат : AC-3
Формат/Информация : Audio Coding 3
Расширение режима : CM (complete main)
Параметр Endianness формата : Big
Идентификатор кодека : 2000
Продолжительность : 1 ч. 54 м.
Вид битрейта : Постоянный
Битрейт : 192 Кбит/сек
Каналы : 2 канала
Расположение каналов : Front: L R
Частота : 48,0 КГц
Битовая глубина : 16 бит
Метод сжатия : С потерями
Размер потока : 157 Мбайт (11%)
Выравнивание : Разделение по промежуткам
Продолжительность промежутка : 42 мс. (1,00 видеокадр)
Время предзагрузки промежутка : 500 мс.
Скриншоты:
       
       
Время раздачи
с 8:00 до 02:00
Вне форума [Профиль] [ЛС]
Похожие темы
Форум Тема Автор Торрент Отв. Посл. сообщение
./templates/default/images/folder_dl.gif Медицина и Здоровье Николай Савельев | Новейший справочник медицинской сестры (2016) [FB2] XP1971
3 | 0

0 | 4042

3

2016-12-08 17:19
XP1971 Последнее
Показать сообщения:    
Ответить на тему

Текущее время: Сегодня 00:21

Часовой пояс: GMT + 3



Вы не можете начинать темы
Вы не можете отвечать на сообщения
Вы не можете редактировать свои сообщения
Вы не можете удалять свои сообщения
Вы не можете голосовать в опросах
Вы не можете прикреплять файлы к сообщениям
Вы не можете скачивать файлы