Сегодня идет свободное скачивание без начисления Download

Черная мантия для убийцы / Une robe noire pour un tueur (1980) VHSRip

Ответить на тему
 
Автор
Сообщение

Omen ®

Стаж: 4 года 1 месяц

Сообщений: 194382

Торрент-статистика

Пост 09-Янв-2013 04:44

[Цитировать]

-Черная мантия для убийцы / Une robe noire pour un tueur (1980) VHSRip- Русское название: Черная мантия для убийцы
Оригинальное название: Une robe noire pour un tueur
Год выпуска: 1980
Страна: Франция
Жанр: драма, криминал
Перевод: Профессиональный: (двухголосый закадровый)-
Премьера: 14 января 1981
Режиссер: Жозе Джованни
Актеры: Анни Жирардо, Клод Брассер, Бруно Кремер, Ариэль Домбаль, Жак Перрен, Катрин Аллегре, Альбина дю Буарувре, Жак Мори, Франсуа-Эрик Жендрон, Филип Дюкло, Арль Гонсалес, Дидье Совегран, Аньез Шато, Жан Шампьон, Патрик Лоран, Жан де Конинк, Рено Верлей

Описание фильма:
Адвокат по уголовным делам, убежденная противница смертной казни, скрывает у себя преступника, обвиненного в убийстве полицейского. Она уверена, что ее подзащитный невиновен. Рискуя своим положением, Флоранс берется помочь ему добиться правосудия и начинает собственное расследование...
-Продолжительность: 01:42:47
Качество видео: VHSRip
Формат: AVI
Видеокодек: XVID
Битрейт видео: ~1635 kbps avg, 25,000 fps, 0.288 bit/pixel
Размер кадра: 592x368 (1.61:1)
Аудиокодек: MP3
Аудио: русский: 48 kHz, MP3, 2 ch, 128 kbps
Субтитры: нет

MediaInfo:

Format : AVI
Format/Info : Audio Video Interleave
File size : 1.27 GiB
Duration : 1h 42mn
Overall bit rate : 1 773 Kbps
Writing library : Boilsoft Joiner build 2411/release
Video
ID : 0
Format : MPEG-4 Visual
Format profile : Advanced [email protected]
Format settings, BVOP : 1
Format settings, QPel : No
Format settings, GMC : No warppoints
Format settings, Matrix : Custom
Codec ID : XVID
Codec ID/Hint : XviD
Duration : 1h 42mn
Bit rate : 1 635 Kbps
Width : 592 pixels
Height : 368 pixels
Display aspect ratio : 1.609
Frame rate : 25.000 fps
Color space : YUV
Chroma subsampling : 4:2:0
Bit depth : 8 bits
Scan type : Progressive
Compression mode : Lossy
Bits/(Pixel*Frame) : 0.300
Stream size : 1.17 GiB (92%)
Writing library : XviD 1.0.3 (UTC 2004-12-20)
Audio
ID : 1
Format : MPEG Audio
Format version : Version 1
Format profile : Layer 3
Mode : Joint stereo
Mode extension : MS Stereo
Codec ID : 55
Codec ID/Hint : MP3
Duration : 1h 42mn
Bit rate mode : Constant
Bit rate : 128 Kbps
Channel(s) : 2 channels
Sampling rate : 48.0 KHz
Compression mode : Lossy
Stream size : 94.1 MiB (7%)
Alignment : Aligned on interleaves
Interleave, duration : 40 ms (1.00 video frame)
Interleave, preload duration : 480 ms
Скриншоты:
         
         
24/7
Вне форума [Профиль] [ЛС]
Похожие темы
Форум Тема Автор Торрент Отв. Посл. сообщение
./templates/default/images/folder_dl.gif Приключения, детектив, боевик, триллер Стаут Рекс - Ниро Вульф 33, Черная гора [Герасимов Вячеслав, 2014 г., 96 kbps, MP3] Omen
1 | 0

0 | 1055

11

2015-05-27 03:26
Omen Последнее
./templates/default/images/folder_dl.gif Rock АлисА - Черная метка (1994) Remastered /2014, Мистерия Звука/ [MP3|320 кб/с]<Rock> Aikivas
4 | 0

0 | 385

6

2015-08-18 21:37
Aikivas Последнее
./templates/default/images/folder_dl.gif T Фильмы 2011-2016 Черная месса / Black Mass (Скотт Купер) [2015 г., драма, криминал, биография,WEB-DLRip] Region_13
1 | 0

0 | 501

25

2016-01-12 12:08
Region_13 Последнее
./templates/default/images/folder_dl.gif Психология, Тренинг, Саморазвитие Ричард Дэнсон | Черная риторика. Запрещенные приёмы ведения дискуссий (2016) [FB2] [email protected]
1 | 0

0 | 129

4

2016-11-25 18:50
[email protected] Последнее
Показать сообщения:    
Ответить на тему

Текущее время: Сегодня 17:37

Часовой пояс: GMT + 3



Вы не можете начинать темы
Вы не можете отвечать на сообщения
Вы не можете редактировать свои сообщения
Вы не можете удалять свои сообщения
Вы не можете голосовать в опросах
Вы не можете прикреплять файлы к сообщениям
Вы не можете скачивать файлы