Сегодня идет свободное скачивание без начисления Download

Тайны Версаля / Si Versailles metait conte (1954) DVDRip

Ответить на тему
 
Автор
Сообщение

Omen ®

Стаж: 4 года 1 месяц

Сообщений: 194394

Торрент-статистика

Пост 09-Янв-2013 04:44

[Цитировать]

-Тайны Версаля / Si Versailles metait conte (1954) DVDRip- Русское название: Тайны Версаля
Оригинальное название: Si Versailles metait conte
Год выпуска: 1954
Страна: Италия, Франция
Жанр: драма, криминал
Перевод: Профессиональный: (двухголосый закадровый)-
Премьера: 9 марта 1954
Режиссер: Саша Гитри
Актеры: Жан Маре, Саша Гитри, Орсон Уэллс, Мишель Оклер, Жан-Пьер Омон, Жан-Луи Барро, Жанна Буатель, Бурвиль, Джино Черви, Эме Кларион, Клодетт Кольбер, Николь Курсель, Даниэль Делорм, Ив Деньо, Даниэль Желен, Фернан Гравей, Пьер Ларкей, Жорж Маршаль, Мари Марке, Габи Морле, Жизель Паскаль, Жан-Клод Паскаль, Жерар Филип, Мишлин Прель, Жан Ришар, Жан Тиссье, Шарль Ванель, Жильбер Бокановски, Полин Картон, Жан Десайи, Тино Росси, Жильбер Жиль, Жан Шеврие, Мари Мансар, Николь Море, Жан-Жак Дельбо, Луи Сенье, Мартин Кароль, Лана Маркони, Эдит Пиаф, Раймон Суплекс, Жан Мюра

Описание фильма:
Уже во времена Людовика XIV говорили, что история Версаля состоит из череды строительств и обольщений. Работы начались в 1661 году. В первые два года Людовик XIV потратил несметные суммы денег. Возведение Версаля продолжалось несколько десятилетий и потребовало не только невероятных денежных расходов, но и привлечения многих тысяч рабочих рук. Первым архитектором Версаля был Луи Лево, его сменил Жюль Ардуэн-Монсар, руководивший строительством в течение тридцати лет. Оформление парков было поручено Андре Ленотру. Но дворец известен не только архитектурным великолепием, он знаменит и своими тайнами и интригами дворцовой знати и его владельцев - королей Франции
-Продолжительность: 01:28:15 + 01:20:07
Качество видео: DVDRip
Формат: AVI
Видеокодек: DivX
Битрейт видео: ~968 kbps avg, 25,000 fps, 0.178 bit/pixel
Размер кадра: 544x400 (4:3)
Аудиокодек: MP3
Аудио: русский: 48 kHz, MP3, 2 ch, 128 kbps
Субтитры: нет

MediaInfo:

Format : AVI
Format/Info : Audio Video Interleave
File size : 700 MiB
Duration : 1h 28mn
Overall bit rate : 1 105 Kbps
Writing application : Nandub v1.0rc2
Video
ID : 0
Format : MPEG-4 Visual
Format settings, BVOP : 1
Format settings, QPel : No
Format settings, GMC : No warppoints
Format settings, Matrix : Default (H.263)
Muxing mode : Packed bitstream
Codec ID : DX50
Codec ID/Hint : DivX 5
Duration : 1h 28mn
Bit rate : 968 Kbps
Width : 544 pixels
Height : 400 pixels
Display aspect ratio : 4:3
Frame rate : 25.000 fps
Color space : YUV
Chroma subsampling : 4:2:0
Bit depth : 8 bits
Scan type : Progressive
Compression mode : Lossy
Bits/(Pixel*Frame) : 0.178
Stream size : 613 MiB (88%)
Writing library : DivX 5.1.1 (Maupiti) (UTC 2003-11-19)
Audio
ID : 1
Format : MPEG Audio
Format version : Version 1
Format profile : Layer 3
Mode : Joint stereo
Mode extension : MS Stereo
Codec ID : 55
Codec ID/Hint : MP3
Duration : 1h 28mn
Bit rate mode : Constant
Bit rate : 128 Kbps
Channel(s) : 2 channels
Sampling rate : 48.0 KHz
Compression mode : Lossy
Stream size : 81.0 MiB (12%)
Alignment : Split accross interleaves
Interleave, duration : 40 ms (1.00 video frame)
Interleave, preload duration : 500 ms
Скриншоты:
         
         
24/7
Вне форума [Профиль] [ЛС]
Похожие темы
Форум Тема Автор Торрент Отв. Посл. сообщение
./templates/default/images/folder_dl.gif Подшивки журналов и газет Подборка журналов | Приключения, тайны, чудеса [2005...2012] [PDF, DjVu] sashau
1 | 0

0 | 1938

5

2013-01-10 15:20
sashau Последнее
./templates/default/images/folder_dl.gif Подшивки журналов и газет Подборка газет | Приключения, тайны, чудеса (2001-2014) [PDF, DJVU] Omen
1 | 0

0 | 815

6

2014-11-16 23:11
Omen Последнее
./templates/default/images/folder_dl.gif Приключения и квесты Secrets of the Dark: The Flower of Shadow Collector\'s Edition / Тайны Тьмы: Цветок Теней. Коллекционное издание [P] [RUS / ENG] (2014) Omen
25 | 0

0 | 417

9

2015-06-11 12:04
Omen Последнее
Показать сообщения:    
Ответить на тему

Текущее время: Сегодня 22:52

Часовой пояс: GMT + 3



Вы не можете начинать темы
Вы не можете отвечать на сообщения
Вы не можете редактировать свои сообщения
Вы не можете удалять свои сообщения
Вы не можете голосовать в опросах
Вы не можете прикреплять файлы к сообщениям
Вы не можете скачивать файлы