Сегодня идет свободное скачивание без начисления Download

Никаких проблем! / Pas de probleme! (1975) [H.264] DVDRip

Ответить на тему
 
Автор
Сообщение

Omen ®

Стаж: 4 года 1 месяц

Сообщений: 194390

Торрент-статистика

Пост 09-Янв-2013 04:44

[Цитировать]

-Никаких проблем! / Pas de probleme! (1975) [H.264] DVDRip- Русское название: Никаких проблем!
Оригинальное название: Pas de probleme!
Год выпуска: 1975
Жанр: Комедия
Страна: Франция
Производство: Gaumont International
Описание фильма:
Неизвестный тип, смертельно раненный в живот, из последних сил бредет по улице, заходит в дом, поднимается в лифте, звонит в первую попавшуюся дверь, она открывается — и девушка-блондинка оказывается лицом к лицу с человеком, которого она видит первый раз в жизни и который падает замертво практически на пороге ее квартиры, успев лишь попросить телефонный аппарат…
Девушка выходит в коридор, чтобы смыть следы крови на стене, и дверь захлопывается. Девушка отправляется к знакомому бармену за помощью, но свои услуги ей предлагает случайный знакомый-студент. Когда же квартиру удается открыть, хозяйка отказывается впустить студента, однако он упрекает ее в негостеприимстве и входит.
Видит труп. Чуть не теряет сознание. Но сохраняет достаточно мозгов для того, чтобы засунуть труп в папашину машину. После чего отец студента пересекает пол-Франции, не зная, какой «сюрприз» подсунул ему в багажник собственный сын, а студент вместе с блондинкой и ее бывшим ухажером пытаются догнать машину с трупом, чтобы выбросить его в каком-нибудь укромном уголке…
Режиссер: Жорж Лотнер
Сценарий: Жан-Мари Пуарэ, Жорж Лотнер
Продюсер: Ален Пуаре
Актеры: Миу-Миу, Жан Лефевр, Бернар Менез, Анри Гибе, Паула Мур, Анни Дюпре, Рене Сен-Сир, Мария Паком, Лионель Витран, Жан Луизи, Анри Коган, Робер Дальбан, Жан-Жак Моро, Поль Мерси, Жан-Поль Фарре, Патрик Девэр, Жерар Жюньо
Продолжительность: 01:38:57
Перевод: Дублированный (киностудия «Союзмультфильм», 1976 г.)
Субтитры: Отсутствуют

Дата мировой премьеры: 18 июня 1975
Видеокодек: MPEG-4 AVC/H.264
Битрейт видео: ~2199 Кбит/сек
Размер кадра: 720x416
Качество видео: DVDRip
Аудиокодек: AC3 2.0
Битрейт аудио: 224 kbps

Реценция с кинопоиска от Descloix:

Никаких проблем!
Проснувшись посреди ночи в идиотском настроении, долго решал, что же делать. Послушать музыку — нет. Уснуть не получалось. Решил, что нужно чем-то занять голову примерно на час-полтора. Долго смотрел и выбирал, и — вот же он: «фильм-хорошее настроение». Название говорит само за себя: «Никаких проблем!»
… Выстрел! И дальше — нет, человек не умер, он еще минут семь будет убегать-уезжать от преследующих его. Что-то мне кажется, что Люк Бессон «стырил» весь этот эпизод, все эти погони на машинах, трюки и просто «осовременил» их в фильме «Такси». Если будете смотреть фильм, обратите внимание на человека, который чуть позже умрет в квартире очаровательной девушки, которую играет Миу-Миу. Вернее, на несколько секунд, прежде чем он покинет этот мир. Я понимаю, не увидев — непонятно, о чем я. Но, уж простите, никогда (даже в более поздних фильмах) это не выглядело так комично. Вообще, ощущений не передашь, как не старайся, лучше просто видеть.
Отдельно следует сказать, что картина шла еще на экранах советских кинотеатров абсолютно свободно, правда, в несколько урезанном виде. Актеры, играющие в фильме — практически все или звезды, или те, кто впоследствии станут звездами французского кино. Главные роли были отданы Жану Лефевру и Миу-Миу. Также буквально в эпизодической роли вы увидите Патрика Дэваэра и, через некоторое время, Анни Дюпрэ. Через несколько лет они сыграют в фильме, который тоже шел на советских экранах: «Тысяча миллиардов долларов». Вообще, в черной комедии играть сложно, чтобы не сбиться в пошлость и не превратить юмор во что-то несуразное и грязное. Здесь этого нет. Я вообще бы назвал этот фильм образцом черной комедии как жанра, здесь не переигрывают с тасканием покойника туда-сюда, все, как говорится, в меру.
По сюжету персонаж Лефевра, познакомившись в баре с героиней Миу-Миу, подвыпивший и натанцевавшийся под музыку, будет буквально ломиться в квартиру к девушке, потом, увидев труп, захочет уйти, но плачущая девушка заставит его остаться и помочь ей избавиться от трупа. Уложив труп в багажник машины отца персонажа Жана Лефевра, казалось бы, все проблемы решены. Но отсюда все только начинается. Отцу героя Лефевра понадобятся ключи, чтобы отправиться к своей жене в Швейцарию, и его простофиля-сын отдает ключи от машины с трупом в багажнике. Потом три человека пустятся догонять машину. Героиня Миу-Миу, персонаж Жана Лефевра и любовник, которого сама девушка попросила поехать вместе с ними на его развалюхе-машине. Дальше их ждут приключения, погоня за отцом, который по дороге к жене успеет подвести случайную попутчицу.
В фильме как-то причудливо соединяется лирика взаимоотношений главных героев, комичность вообще всего происходящего с ними, погони, великолепная музыка с праздничной атмосферой и духом фильма (а действие происходит в канун Рождества). Великолепная игра всех, включая актеров второго плана и даже участвующих в малюсеньких эпизодах. И все это очень легко и современно смотрится.
… Досмотрев фильм, я почувствовал, что с моим настроением все в порядке и у меня действительно «Никаких проблем!»

MediaInfo:

Общее
Уникальный идентификатор : 251753496301117488541200684103218696855 (0xBD65F5AFC124C04BBB37772768BF1297)
Полное имя : D:\Downloads\Никаких проблем!.mkv
Формат : Matroska
Версия формата : Version 2
Размер файла : 1,68 Гбайт
Продолжительность : 1 ч. 38 м.
Общий поток : 2424 Кбит/сек
Дата кодирования : UTC 2013-01-04 00:30:39
Программа кодирования : mkvmerge v5.7.0 ('The Whirlwind') built on Jul 29 2012 15:12:35
Библиотека кодирования : libebml v1.2.3 + libmatroska v1.3.0
Видео
Идентификатор : 1
Формат : AVC
Формат/Информация : Advanced Video Codec
Профиль формата : [url=mailto:[email protected]][email protected][/url]
Параметр CABAC формата : Да
Параметр ReFrames формата : 8 кадров
Режим смешивания : Header stripping
Идентификатор кодека : V_MPEG4/ISO/AVC
Продолжительность : 1 ч. 38 м.
Битрейт : 2199 Кбит/сек
Ширина : 720 пикселей
Высота : 416 пикселей
Соотношение сторон : 1,731
Режим частоты кадров : Постоянный
Частота кадров : 25,000 кадров/сек
Цветовое пространство : YUV
Субдискретизация насыщенности : 4:2:0
Битовая глубина : 8 бит
Тип развёртки : Прогрессивная
Бит/(Пиксели*Кадры) : 0.294
Размер потока : 1,49 Гбайт (89%)
Заголовок : Pas de probleme!
Библиотека кодирования : x264 core 129 r2230 1cffe9f
Настройки программы : cabac=1 / ref=8 / deblock=1:-1:-1 / analyse=0x3:0x133 / me=umh / subme=9 / psy=1 / psy_rd=1.00:0.15 / mixed_ref=1 / me_range=16 / chroma_me=1 / trellis=2 / 8x8dct=1 / cqm=0 / deadzone=21,11 / fast_pskip=1 / chroma_qp_offset=-3 / threads=3 / lookahead_threads=1 / sliced_threads=0 / nr=0 / decimate=1 / interlaced=0 / bluray_compat=0 / constrained_intra=0 / bframes=3 / b_pyramid=2 / b_adapt=2 / b_bias=0 / direct=3 / weightb=1 / open_gop=0 / weightp=2 / keyint=250 / keyint_min=25 / scenecut=40 / intra_refresh=0 / rc_lookahead=60 / rc=2pass / mbtree=1 / bitrate=2199 / ratetol=1.0 / qcomp=0.60 / qpmin=0 / qpmax=69 / qpstep=4 / cplxblur=20.0 / qblur=0.5 / ip_ratio=1.40 / aq=1:1.00
Язык : French
Default : Да
Forced : Нет
Аудио
Идентификатор : 2
Формат : AC-3
Формат/Информация : Audio Coding 3
Расширение режима : CM (complete main)
Параметр Endianness формата : Big
Режим смешивания : Header stripping
Идентификатор кодека : A_AC3
Продолжительность : 1 ч. 38 м.
Вид битрейта : Постоянный
Битрейт : 224 Кбит/сек
Каналы : 2 канала
Расположение каналов : Front: L R
Частота : 48,0 КГц
Битовая глубина : 16 бит
Метод сжатия : С потерями
Размер потока : 159 Мбайт (9%)
Заголовок : Дублированный
Язык : Russian
Default : Да
Forced : Нет
Скриншоты:                    Время раздачи: с 12:00 до 24:00 по Москве (выходные круглосуточно), до 10 скачавших
Вне форума [Профиль] [ЛС]
Показать сообщения:    
Ответить на тему

Текущее время: Сегодня 14:57

Часовой пояс: GMT + 3



Вы не можете начинать темы
Вы не можете отвечать на сообщения
Вы не можете редактировать свои сообщения
Вы не можете удалять свои сообщения
Вы не можете голосовать в опросах
Вы не можете прикреплять файлы к сообщениям
Вы не можете скачивать файлы