Сегодня идет свободное скачивание без начисления Download

Второй трагический Фантоцци / Il Secondo tragico Fantozzi (1976) DVDRip

Ответить на тему
 
Автор
Сообщение

Omen ®

Стаж: 4 года 1 месяц

Сообщений: 194394

Торрент-статистика

Пост 09-Янв-2013 04:44

[Цитировать]

-Второй трагический Фантоцци / Il Secondo tragico Fantozzi (1976) DVDRip- Русское название: Второй трагический Фантоцци
Оригинальное название: Il Secondo tragico Fantozzi
Год выпуска: 1976
Жанр: Комедия
Выпущено: Италия / Rizzoli Film S.P.A.-Описание фильма:
Его жена уехала к маме. А он решил устроить мальчишник: друзья, пиво, девушки, танцы. Через три часа пиво кончилось, девушки разделись. А жена вернулась за любимым зонтиком…-Режиссер: Лучиано Салче
Актеры: Паоло Вилладжио, Анна Маццамаура, Джиджи Редер, Уго Болонья, Мауро Вестри, Плинио Фернандо, Антонио Фаа' Ди Бруно, Ньетта Зокки, Паоло Паолони, Джузеппе Анатрелли, Лью Босисио-Продолжительность: 01:44:59
Перевод: Многоголосый закадровый

Дата мировой премьеры: 15 апреля 1976
Дата российской премьеры: 28 октября 2008, «Мастер Тэйп»
Ограничения: 16+-Видеокодек: Xvid
Битрейт видео: ~1800 Кбит/с
Размер кадра: 704 x 384
Качество видео: DVDRip
Аудио: AC3, 2ch, 192 Кбит/с

Сэмпл

Медиаинфо

General
Complete name : G:\ Il.secondo.tragico.Fantozzi.1976.XviD.DVDRip.avi
Format : AVI
Format/Info : Audio Video Interleave
File size : 1.47 GiB
Duration : 1h 44mn
Overall bit rate : 2 002 Kbps
Writing application : VirtualDubMod 1.5.10.2 (build 2540/release)
Writing library : VirtualDubMod build 2540/release
Video
ID : 0
Format : MPEG-4 Visual
Format profile : Advanced [email protected]
Format settings, BVOP : Yes
Format settings, QPel : No
Format settings, GMC : No warppoints
Format settings, Matrix : Default (H.263)
Codec ID : XVID
Codec ID/Hint : XviD
Duration : 1h 44mn
Bit rate : 1 800 Kbps
Width : 704 pixels
Height : 384 pixels
Display aspect ratio : 16:9
Frame rate : 25.000 fps
Resolution : 8 bits
Colorimetry : 4:2:0
Scan type : Progressive
Bits/(Pixel*Frame) : 0.266
Stream size : 1.32 GiB (90%)
Writing library : XviD 1.2.1 (UTC 2008-12-04)
Audio
ID : 1
Format : AC-3
Format/Info : Audio Coding 3
Codec ID : 2000
Duration : 1h 44mn
Bit rate mode : Constant
Bit rate : 192 Kbps
Channel(s) : 2 channels
Channel positions : Front: L R
Sampling rate : 48.0 KHz
Stream size : 144 MiB (10%)
Alignment : Split accross interleaves
Interleave, duration : 40 ms (1.00 video frame)
Interleave, preload duration : 500 ms
Скриншоты:
       
Время раздачи: 24/7 - круглосуточно
Вне форума [Профиль] [ЛС]
Похожие темы
Форум Тема Автор Торрент Отв. Посл. сообщение
./templates/default/images/folder_dl.gif Разное Екатерина II, Вольтер | Переписка Российской императрицы Екатерины второй с Вольтером [1802] [PDF] UndegraundMen
1 | 0

0 | 1537

6

2013-08-26 23:32
UndegraundMen Последнее
./templates/default/images/folder_dl.gif Обучающее видео Почему люди покупают? Скрытые и явные потребности / Второй вебинар курса "Стратегия и тактика больших продаж" (СПИН-продажи) [2015, Продажи, SATRip, RUS] (Видеоурок) Omen
1 | 0

0 | 491

21

2015-05-24 18:00
Omen Последнее
Показать сообщения:    
Ответить на тему

Текущее время: Сегодня 17:28

Часовой пояс: GMT + 3



Вы не можете начинать темы
Вы не можете отвечать на сообщения
Вы не можете редактировать свои сообщения
Вы не можете удалять свои сообщения
Вы не можете голосовать в опросах
Вы не можете прикреплять файлы к сообщениям
Вы не можете скачивать файлы