Сегодня идет свободное скачивание без начисления Download

Профессионал / Le Professionnel (1981) HDRip

Ответить на тему
 
Автор
Сообщение

Omen ®

Стаж: 5 лет 2 месяца

Сообщений: 190516

Торрент-статистика

Пост 09-Янв-2013 04:44

[Цитировать]

-Профессионал / Le Professionnel (1981) HDRip- Русское название: Профессионал
Оригинальное название: Le Professionnel
Год выпуска: 1981
Выпущено: Франция / Cerito Films, Les Films Ariane
Жанр: Боевик, Триллер, Драма, Криминал-Описание фильма:
Убить президента африканской республики. Такое задание получил секретный агент Жослен Бомон. Внезапно политика изменилась, и французское правительство сдает героя африканским властям. Сбежав с каторги, волк-одиночка возвращается на родину с одной целью: довести задание до конца. А чернокожий лидер как раз приезжает во Францию.-Режиссер: Жорж Лотнер
Актеры: Жан-Поль Бельмондо, Жан Дезайи, Робер Оссейн, Мишель Бон, Сирьель Клер, Жан-Луи Ришар, Пьер Сентон, Мари-Кристин Декуар, Бернар-Пьер Доннадье, Элизабет Маргони, Сидики Бакаба, Пьер Вернье, Морис Озель, Баарон, Мишель Беррер, Жан-Клод Буйо, Даниель Бретон, Жерар Даррье, Серж Нубре, Шейк Дукуре, Пьер Форже, Марк Ламоль, Ги Мересс, Жюльен Буковски, Паскаль Н'Зонзи, Жак Канселье, Клод-Бернар Перо, Ив Пиньо, Андре Вебер, Дэни Коган, Беате Копп-Продолжительность: 01:47:53
Перевод: Многоголосый закадровый- -Дата мировой премьеры: 21 октября 1981
Дата выхода DVD релиза: 16 декабря 2010, «Neoclassica»-Видеокодек: Xvid
Битрейт видео: ~823 kbps
Размер кадра: 592x352
Качество видео: HDRip
Аудиокодек: MP3 (2 ch)
Битрейт аудио: 128 kbps

MediaInfo

Общее
Полное имя : D:\Торрент раздача\Professional_1981_HDRip.avi
Формат : AVI
Формат/Информация : Audio Video Interleave
Размер файла : 742 Мбайт
Продолжительность : 1 ч. 47 м.
Общий поток : 961 Кбит/сек
Программа кодирования : VirtualDubMod 1.5.10.2 (build 2540/release)
Библиотека кодирования : VirtualDubMod build 2540/release
Видео
Идентификатор : 0
Формат : MPEG-4 Visual
Профиль формата : Advanced [email protected]
Параметр BVOP формата : 1
Параметр QPel формата : Нет
Параметр GMC формата : Без точки перехода
Параметр матрицы формата : Выборочная
Идентификатор кодека : XVID
Идентификатор кодека/Подсказка : XviD
Продолжительность : 1 ч. 47 м.
Битрейт : 824 Кбит/сек
Ширина : 592 пикселя
Высота : 352 пикселя
Соотношение сторон : 1,682
Частота кадров : 24,000 кадра/сек
Цветовое пространство : YUV
Субдискретизация насыщенности : 4:2:0
Битовая глубина : 8 бит
Тип развёртки : Прогрессивная
Метод сжатия : С потерями
Бит/(Пиксели*Кадры) : 0.165
Размер потока : 636 Мбайт (86%)
Библиотека кодирования : XviD 1.2.1 (UTC 2008-12-04)
Аудио
Идентификатор : 1
Формат : MPEG Audio
Версия формата : Version 1
Профиль формата : Layer 3
Идентификатор кодека : 55
Идентификатор кодека/Подсказка : MP3
Продолжительность : 1 ч. 47 м.
Вид битрейта : Постоянный
Битрейт : 128 Кбит/сек
Каналы : 2 канала
Частота : 48,0 КГц
Метод сжатия : С потерями
Размер потока : 98,8 Мбайт (13%)
Выравнивание : Соединение по промежуткам
Продолжительность промежутка : 42 мс. (1,00 видеокадр)
Время предзагрузки промежутка : 504 мс.
Библиотека кодирования : LAME3.97
Настройки программы : -m s -V 4 -q 2 -lowpass 17 -b 128
Скриншоты:
                   
Время раздачи: 24/7
Вне форума [Профиль] [ЛС]
Похожие темы
Форум Тема Автор Торрент Отв. Посл. сообщение
./templates/default/images/folder_dl.gif Обучающее видео Александр Свет | Профессиональная обработка RAW в Capture One Pro 7 (2013) [PCRec] UndegraundMen
1 | 0

0 | 2225

46

2013-11-28 23:01
UndegraundMen Последнее
./templates/default/images/folder_dl.gif Обучающее видео Дмитрий Морозов | IPcamMaster - Профессиональное видеонаблюдение своими руками (2014) [DVD5] Varius
1 | 0

0 | 2232

43

2014-05-24 06:23
Varius Последнее
./templates/default/images/folder_dl.gif Фильмы до 2000 года Иван Васильевич меняет профессию (Леонид Гайдай) [1973 г., фантастика, комедия, приключения, семейный, BDRip, 1080p] [hand made 60fps] Omen
1 | 0

0 | 1090

9

2014-09-25 20:17
Omen Последнее
./templates/default/images/folder_dl.gif Windows 7 (оригинальные образы) Windows 7 Профессиональная SP1 x64 [OA CIS and GE] (Original) 6/11 X17-04751-02 [Ru] Clavik
1 | 0

0 | 5196

105

2015-10-04 14:28
Clavik Последнее
./templates/default/images/folder_dl.gif Обучающее видео Java Course | Java EE. Профессиональная разработка (2015) PCRec [H.264/720p] Omen
1 | 0

0 | 814

72

2015-10-12 00:59
Omen Последнее
./templates/default/images/folder_dl.gif Обучающее видео [Постгрес Профессиональный] DBA2 - Администрирование PostgreSQL. Расширенный курс [2016, RUS] Omen
1 | 0

2 | 917

10

2017-04-19 23:23
intel77 Последнее
./templates/default/images/folder_dl.gif Компьютерная литература Е. В. Михеева | Информационные технологии в профессиональной деятельности. 14-е издание (2016) [PDF] XP1971
1 | 0

0 | 5798

2

2017-06-06 23:00
XP1971 Последнее
./templates/default/images/folder_sticky.gif Бизнес, Право, Экономика, Финансы Юрий Чурилов | Справочник юридических хитростей для начинающих юристов и профессионалов (2017) [RTF, FB2] XP1971
1 | 0

0 | 3290

16

2017-06-30 15:22
XP1971 Последнее
Показать сообщения:    
Ответить на тему

Текущее время: Сегодня 08:58

Часовой пояс: GMT + 3



Вы не можете начинать темы
Вы не можете отвечать на сообщения
Вы не можете редактировать свои сообщения
Вы не можете удалять свои сообщения
Вы не можете голосовать в опросах
Вы не можете прикреплять файлы к сообщениям
Вы не можете скачивать файлы