Сегодня идет свободное скачивание без начисления Download

Стивен Кинг. Коллекция фильмов. Часть 4 из5 / (1995-2000) DVDRip

Ответить на тему
 
Автор
Сообщение

Omen ®

Стаж: 4 года 1 месяц

Сообщений: 194390

Торрент-статистика

Пост 09-Янв-2013 04:44

[Цитировать]

-Стивен Кинг. Коллекция фильмов. Часть 4 из5 / (1995-2000) DVDRip- Русское название: Стивен Кинг.
Оригинальное название: Коллекция фильмов.
Год выпуска: 1995-2000
Жанр: Ужасы, Фэнтези, Триллер
Фильмы отсортированны по году выхода на экран. Часть 4 из 5

Стивен Кинг - Давилка/The Mangler. 1995 год

Русское название: Давилка
Оригинальное название: The Mangler
Год выпуска: 1995
Жанр: Ужасы, Фэнтези, Триллер
Описание фильма: На окраине городка в Новой Англии расположилась прачечная "Голубая лента" - старинное серое здание. А в самом центре этого заведения монументально возвышается "Давилка" - пятитонный пресс для отжимания белья. Но однажды, молодая работница Шерри порезала руку, пролив кровь на "Давилку", и машина словно взбесилась. Она затянула в свои внутренности престарелую миссис Фроули. Все попытки спасти ее ни к чему не привели. За расследование берется детектив Хантон. Его сосед, изучающий оккультные науки, утверждает, что дело не обошлось без вмешательства потусторонних сил. И в руки Хантона попадает альбом с вырезками из старых газет, где собраны материалы о случаях исчезновения молодых невинных девушек в день их 16-летия, причем одной из них была дочь хозяина прачечной. А Шерри, которой должно исполниться 16, его родная племянница...
Режиссер: Тоб Хупер /Tobe Hooper/
Актеры: Роберт Энглунд /Robert Englund/, Тед Ливайн /Ted Levine/, Дэниэл Мэтмор /Daniel Matmor/, Джереми Кратчли /Jeremy Crutchley/, Ванесса Пайк /Vanessa Pike
Продолжительность: 01:45:09
Перевод: Профессиональный многоголосный
Видеокодек: XviD
Битрейт видео: 1397 Кбит/сек
Размер кадра: 672х352
Качество видео: DVDrip
Аудио #1
Аудиокодек: AC-3
Битрейт аудио: 192 Кбит/сек
Аудио #2
Аудиокодек: AC-3
Битрейт аудио: 448 Кбит/сек

Media info:

Формат : AVI
Формат/Информация : Audio Video Interleave
Размер файла : 1,51 Гбайт
Продолжительность : 1 ч. 45 м.
Общий поток : 2051 Кбит/сек
Программа кодирования : VirtualDubMod 1.5.10.2 (build 2540/release)
Библиотека кодирования : VirtualDubMod build 2540/release
Видео
Идентификатор : 0
Формат : MPEG-4 Visual
Профиль формата : Advanced [email protected]
Параметр BVOP формата : 1
Параметр QPel формата : Нет
Параметр GMC формата : Без точки перехода
Параметр матрицы формата : Default (MPEG)
Режим смешивания : Сжатый битовый поток
Идентификатор кодека : XVID
Идентификатор кодека/Подсказка : XviD
Продолжительность : 1 ч. 45 м.
Битрейт : 1397 Кбит/сек
Ширина : 672 пикселя
Высота : 352 пикселя
Соотношение сторон : 1,909
Частота кадров : 23,976 кадра/сек
Цветовое пространство : YUV
Субдискретизация насыщенности : 4:2:0
Битовая глубина : 8 бит
Тип развёртки : Прогрессивная
Метод сжатия : С потерями
Бит/(Пиксели*Кадры) : 0.246
Размер потока : 1,03 Гбайт (68%)
Библиотека кодирования : XviD 1.0.3 (UTC 2004-12-20)
Аудио #1
Идентификатор : 1
Формат : AC-3
Формат/Информация : Audio Coding 3
Расширение режима : CM (complete main)
Параметр Endianness формата : Big
Идентификатор кодека : 2000
Продолжительность : 1 ч. 45 м.
Вид битрейта : Постоянный
Битрейт : 192 Кбит/сек
Каналы : 2 канала
Расположение каналов : Front: L R
Частота : 48,0 КГц
Битовая глубина : 16 бит
Метод сжатия : С потерями
Размер потока : 145 Мбайт (9%)
Выравнивание : Соединение по промежуткам
Продолжительность промежутка : 42 мс. (1,00 видеокадр)
Время предзагрузки промежутка : 512 мс.
Аудио #2
Идентификатор : 2
Формат : AC-3
Формат/Информация : Audio Coding 3
Расширение режима : CM (complete main)
Параметр Endianness формата : Big
Идентификатор кодека : 2000
Продолжительность : 1 ч. 45 м.
Вид битрейта : Постоянный
Битрейт : 448 Кбит/сек
Каналы : 6 каналов
Расположение каналов : Front: L C R, Side: L R, LFE
Частота : 48,0 КГц
Битовая глубина : 16 бит
Метод сжатия : С потерями
Размер потока : 338 Мбайт (22%)
Выравнивание : Разделение по промежуткам
Продолжительность промежутка : 42 мс. (1,00 видеокадр)
Время предзагрузки промежутка : 500 мс.
Скриншоты:

Время раздачи: с 8:00 до 24:00

Стивен Кинг - Дети кукурузы 3: Городская жатва / Children of the Corn III: Urban Harvest. 1995 год

Русское название: Дети кукурузы 3: Городская жатва
Оригинальное название: Children of the Corn III: Urban Harvest
Год выпуска: 1995
Жанр: Ужасы, Фэнтези, Триллер
Описание фильма: У Илая и Джоша родители погибли на том самом кукурузном поле. Обеспеченные люди Аманда и Уильям усыновили сирот. Так деревенские мальчики попали в город. Джош быстро адаптировался и завел себе друзей. А Илай сажает кукурузу на заброшенном фабричном дворе и произносит при этом странные заклинания. Постепенно сила культа растет, ему приносятся жертвы, а бывший школьный отщепенец Эли, становится общепризнанным авторитетом и пророком...
Режиссер: Джеймс Д. Р. Хикокс /James D. R. Hickox/
Актеры: Дэниэл Черни /Daniel Cerny/, Рон Мелендес /Ron Melendez/, Майкл Инсайн /Michael Ensign/, Джон Клэйр /Jon Clair/, Мэри Морроу /Mari Morrow/, Дьюк Страуд /Duke Stroud/
Продолжительность: 01:28:33
Перевод: Профессиональный многоголосный
Видеокодек: DivX
Битрейт видео: 931 Кбит/сек
Размер кадра: 448х336
Качество видео: DVDrip
Аудиокодек: MP3
Битрейт аудио: MP3

Media info:

Формат : AVI
Формат/Информация : Audio Video Interleave
Размер файла : 697 Мбайт
Продолжительность : 1 ч. 28 м.
Общий поток : 1101 Кбит/сек
Программа кодирования : VirtualDubMod 1.5.10.2 (build 2540/release)
Библиотека кодирования : VirtualDubMod build 2540/release
Видео
Идентификатор : 0
Формат : MPEG-4 Visual
Параметр BVOP формата : 1
Параметр QPel формата : Нет
Параметр GMC формата : 2 точки перехода
Параметр матрицы формата : Default (H.263)
Режим смешивания : Сжатый битовый поток
Идентификатор кодека : DX50
Идентификатор кодека/Подсказка : DivX 5
Продолжительность : 1 ч. 28 м.
Битрейт : 931 Кбит/сек
Ширина : 448 пикселей
Высота : 336 пикселей
Соотношение сторон : 4:3
Частота кадров : 25,000 кадров/сек
Цветовое пространство : YUV
Субдискретизация насыщенности : 4:2:0
Битовая глубина : 8 бит
Тип развёртки : Прогрессивная
Метод сжатия : С потерями
Бит/(Пиксели*Кадры) : 0.247
Размер потока : 590 Мбайт (85%)
Библиотека кодирования : DivX 5.0.2 (UTC 2002-05-16)
Аудио
Идентификатор : 1
Формат : MPEG Audio
Версия формата : Version 1
Профиль формата : Layer 3
Идентификатор кодека : 55
Идентификатор кодека/Подсказка : MP3
Продолжительность : 1 ч. 28 м.
Вид битрейта : Постоянный
Битрейт : MP3
Каналы : 2 канала
Частота : 44,1 КГц
Метод сжатия : С потерями
Размер потока : 101 Мбайт (15%)
Выравнивание : Разделение по промежуткам
Продолжительность промежутка : 40 мс. (1,00 видеокадр)
Время предзагрузки промежутка : 500 мс.
Скриншоты:

Время раздачи: с 8:00 до 24:00

Стивен Кинг - Иногда они возвращаются снова / Sometimes They Come Back... Again. 1995 год

Русское название: Иногда они возвращаются снова
Оригинальное название: Sometimes They Come Back
Год выпуска: 1995
Жанр: Ужасы, Фэнтези, Триллер
Описание фильма: Продолжение хорошего страшка “Иногда они возвращаются”. Жизнь семнадцатилетней Мишель оказывается в опасности, когда отец Джон Портер в ее ухажоре узнает человека причастного к гибели сестры, чья смерть 30 лет назад была связана с поклонением Сатане. Нестареющий чувак начинает яро ухлестывать за симпатичной Мишель, на семейных ужинах и посиделках недвусмысленно намекая не находящему спокойствие отцу о скором часе расплаты и приближающемуся дне рождения дочери, в который произойдет много интересного. Обнаженная спина девушки маняще поблескивала выступившим потом в свете ночной лампы. Стон наслаждения был подобен пощечине, от которой Джон содрогнулся. Тот, с кем его дочь занималась любовью был не человек, и это видел только он. Рот наполненный ужасного вида клыками жадно приник к восхитительной девичей груди. Мертвого вида щупальце ласково обвилось вокруг ритмично двигающихся бедер Мишель. Вынести это зрелище было невозможно. Девушку готовят в жертву нечистой силе и только отвага отца способна уберечь ее от грязных лап Сатаны. Ушедшее от первых “Иногда они возвращаются” в сторону визуальных ужасов, продолжение порадует обязательными: копошащимися червями, мистическими ритуалами и победой добра над злом. Мне фильм нравится. В 1998 году “возвращенцы” превратились в трилогию.
Режиссер: Адам Гроссман/Adam Grossman
Актеры: Майкл Гросс/Michael Gross, Алексис Аркетт/Alexis Arkett, Хилари Суонк/Hilary Suonk, Дженнифер Элис Кокс/Jennifer Alice Cox, У. Морган Шеппард/U.Morgan Sheppard, Патрик Ренна/Patrick Renna, Дженнифер Эстон/Jennifer Eston
Продолжительность: 01:37:12
Перевод: Любительский одноголосный закадровый
Видеокодек: DivX
Битрейт видео: 860 Кбит/сек
Размер кадра: 576х416
Качество видео: DVDrip
Аудиокодек: AC-3
Битрейт аудио: 160 Кбит/сек

Media info:

Формат : AVI
Формат/Информация : Audio Video Interleave
Размер файла : 721 Мбайт
Продолжительность : 1 ч. 37 м.
Общий поток : 1029 Кбит/сек
Программа кодирования : Nandub v1.0rc2
Библиотека кодирования : VirtualDub build 28292/release
Видео
Идентификатор : 0
Формат : MPEG-4 Visual
Параметр BVOP формата : 1
Параметр QPel формата : Нет
Параметр GMC формата : Без точки перехода
Параметр матрицы формата : Default (H.263)
Режим смешивания : Сжатый битовый поток
Идентификатор кодека : DX50
Идентификатор кодека/Подсказка : DivX 5
Продолжительность : 1 ч. 37 м.
Битрейт : 860 Кбит/сек
Ширина : 576 пикселей
Высота : 416 пикселей
Соотношение сторон : 1,385
Частота кадров : 23,976 кадра/сек
Цветовое пространство : YUV
Субдискретизация насыщенности : 4:2:0
Битовая глубина : 8 бит
Тип развёртки : Прогрессивная
Метод сжатия : С потерями
Бит/(Пиксели*Кадры) : 0.150
Размер потока : 603 Мбайт (84%)
Библиотека кодирования : DivX 6.0.0 (UTC 2005-06-15)
Аудио
Идентификатор : 1
Формат : AC-3
Формат/Информация : Audio Coding 3
Расширение режима : CM (complete main)
Параметр Endianness формата : Big
Идентификатор кодека : 2000
Продолжительность : 1 ч. 37 м.
Вид битрейта : Постоянный
Битрейт : 160 Кбит/сек
Каналы : 2 канала
Расположение каналов : Front: L R
Частота : 44,1 КГц
Битовая глубина : 16 бит
Метод сжатия : С потерями
Размер потока : 112 Мбайт (16%)
Выравнивание : Соединение по промежуткам
Продолжительность промежутка : 42 мс. (1,00 видеокадр)
Время предзагрузки промежутка : 522 мс.
Скриншоты:

Время раздачи: с 8:00 до 24:00

Стивен Кинг - Дети Кукурузы 4: Сбор Урожая / Children of the Corn IV: The Gathering . 1996 год

Русское название: Дети Кукурузы 4: Сбор Урожая
Оригинальное название: Children of the Corn IV: The Gathering
Год выпуска: 1996
Жанр: Ужасы, Фэнтези, Триллер
Описание фильма: Продолжение жуткой кровавой истории о злобных детках, убивших своих родителей и провозгласивших страшный культ кукурузы, которой они принесли их в жертву. Но кукуруза ненасытна — она требует все новых и новых жертв, поэтому страсти продолжают накаляться.Ужасы шевелят волосы на головах доверчивых зрителей, трясущихся от страха. Преступления, совершенные во имя `царицы полей`, становятся все более садистскими и изощренными.
Режиссер: Грег Спенс / Greg Spence
Актеры: Наоми Уоттс / Naomi Watts, Брент Дженнингс / Brent Jennings, Сэмэриа Грэм / Samaria Graham, Джэми Рене Смит / Jamie Renee Smith, Брэндон Клейла / Brandon Kleyla, Уильям Уиндом / William Windom, Кэрен Блэк / Karen Black, Марк Сэллинг / Mark Salling, Тони Марш / Toni Marsh, Льюис Флэнэгэн-третий / Lewis Flanagan III, Сэлли Эллис / Salle Ellis, Мэриэтта Мэрич / Marietta Marich, Джонатан Пэттерсон / Jonathan Patterson, Джошуа Пэттерсон / Joshua Patterson, Кэй Бауэр / Kay Bower, Ивэн Гринуолт / Evan Greenwalt, Эдам Лидберг / Adam Lidberg, Либби Виллари / Libby Villary
Продолжительность: 01:21:14
Перевод: Профессиональный многоголосный
Видеокодек: XviD
Битрейт видео: 999 Кбит/сек
Размер кадра: 640х480
Качество видео: DVDrip
Аудиокодек: MP3
Битрейт аудио: 192 Кбит/сек

Media info:

Формат : AVI
Формат/Информация : Audio Video Interleave
Размер файла : 700 Мбайт
Продолжительность : 1 ч. 21 м.
Общий поток : 1198 Кбит/сек
Программа кодирования : VirtualDubMod 1.5.10.1 (build 2439/release)
Библиотека кодирования : VirtualDubMod build 2439/release
Видео
Идентификатор : 0
Формат : MPEG-4 Visual
Профиль формата : [email protected]
Параметр BVOP формата : 1
Параметр QPel формата : Нет
Параметр GMC формата : Без точки перехода
Параметр матрицы формата : Выборочная
Идентификатор кодека : XVID
Идентификатор кодека/Подсказка : XviD
Продолжительность : 1 ч. 21 м.
Битрейт : 999 Кбит/сек
Ширина : 640 пикселей
Высота : 480 пикселей
Соотношение сторон : 4:3
Частота кадров : 25,000 кадров/сек
Цветовое пространство : YUV
Субдискретизация насыщенности : 4:2:0
Битовая глубина : 8 бит
Тип развёртки : Прогрессивная
Метод сжатия : С потерями
Бит/(Пиксели*Кадры) : 0.130
Размер потока : 583 Мбайт (83%)
Библиотека кодирования : XviD 1.0.3 (UTC 2004-12-20)
Аудио
Идентификатор : 1
Формат : MPEG Audio
Версия формата : Version 1
Профиль формата : Layer 3
Режим : Joint stereo
Идентификатор кодека : 55
Идентификатор кодека/Подсказка : MP3
Продолжительность : 1 ч. 21 м.
Вид битрейта : Постоянный
Битрейт : 192 Кбит/сек
Каналы : 2 канала
Частота : 44,1 КГц
Метод сжатия : С потерями
Задержка видео : 25 мс.
Размер потока : 112 Мбайт (16%)
Выравнивание : Разделение по промежуткам
Продолжительность промежутка : 80 мс. (2,00 видеокадра)
Время предзагрузки промежутка : 500 мс.
Скриншоты:

Время раздачи: с 8:00 до 24:00

Стивен Кинг - Худеющий/Thinner. 1996 год

Русское название: Худеющий
Оригинальное название: Thinner
Год выпуска: 1996
Жанр: Ужасы, Фэнтези, Триллер
Описание фильма: Адвокат Билли Хэллек, сбивший машиной цыганку, оправдывается в суде благодаря своим связям. Но всех этих людей настигает суровая кара - страшные заклятия, превратившие жизнь каждого из них в особенный кошмар...
Режиссер: Том Холлэнд /Tom Holland/
Актеры: Майкл Константин /Michael Constantine/, Кэри Вурер /Kari Wuhrer/, Джо Мантенья /Joe Mantegna/, Люсинда Дженни /Lucinda Jenney/, Роберт Джон Берк /Robert John Burke/, Сэм Фрид /Sam Freed/, Элизабет Франц /Elizabeth Franz/, Джон Хортон /John Horton/
Продолжительность: 01:28:22
Перевод: Профессиональный многоголосный
Видеокодек: DivX
Битрейт видео: 835 Кбит/сек
Размер кадра: 496х368
Качество видео: DVDrip
Аудиокодек: MP3
Битрейт аудио: 128 Кбит/сек

Media info:

Формат : AVI
Формат/Информация : Audio Video Interleave
Размер файла : 611 Мбайт
Продолжительность : 1 ч. 28 м.
Общий поток : 968 Кбит/сек
Видео
Идентификатор : 0
Формат : MPEG-4 Visual
Идентификатор кодека : DIV3
Идентификатор кодека/Подсказка : DivX 3 Low
Продолжительность : 1 ч. 28 м.
Битрейт : 835 Кбит/сек
Ширина : 496 пикселей
Высота : 368 пикселей
Соотношение сторон : 4:3
Частота кадров : 25,000 кадров/сек
Цветовое пространство : YUV
Субдискретизация насыщенности : 4:2:0
Битовая глубина : 8 бит
Метод сжатия : С потерями
Бит/(Пиксели*Кадры) : 0.183
Размер потока : 527 Мбайт (86%)
Заголовок : Videostream
Аудио
Идентификатор : 1
Формат : MPEG Audio
Версия формата : Version 1
Профиль формата : Layer 3
Режим : Joint stereo
Расширение режима : MS Stereo
Идентификатор кодека : 55
Идентификатор кодека/Подсказка : MP3
Продолжительность : 1 ч. 28 м.
Продолжительность оригинала : 1 ч. 28 м.
Вид битрейта : Постоянный
Битрейт : 128 Кбит/сек
Каналы : 2 канала
Частота : 48,0 КГц
Метод сжатия : С потерями
Размер потока : 80,7 Мбайт (13%)
Выравнивание : Разделение по промежуткам
Продолжительность промежутка : 1000 мс. (25,00 видеокадров)
Заголовок : Audiostream 1
Скриншоты:

Время раздачи: с 8:00 до 24:00

Стивен Кинг - Автострада / Quicksilver Highway . 1997 год

Русское название: Автострада
Оригинальное название: Quicksilver Highway
Год выпуска: 1997
Жанр: Ужасы, Фэнтези, Триллер
Описание фильма: На пустынной автостраде, теряющейся в таинственном полумраке, путников на каждом шагу поджидают удивительные и необъяснимые события. Здесь неутомимым искателям приключений судьба уготовила встречу с загадочным Эроном Квиксильвером. Этот бесстрашный знаток всего странного и необычного всегда готов поведать гостям пару страшных историй из своей неисчерпаемой энциклопедии ужасов и тайн. Загляните и вы к нему на огонек, если не боитесь, что его рассказы надолго лишат вас сна и покоя...
Режиссер: Мик Гаррис/Mick Garris
Актеры: Кристофер Ллойд/Christopher Lloyd, Мэтт Фрюэр/Matt Fryuer, Рафаэль Сбардж/Raphael Sbardzh, Мисси Крайдер/Missie Krayder, Билл Нанн/Bill Nann, Вероника Картрайт/Veronica Kartrayt
Продолжительность: 01:30:11
Перевод: Профессиональный многоголосный
Видеокодек: XviD
Битрейт видео: 1870 Кбит/сек
Размер кадра: 704х528
Качество видео: DVDrip
Аудиокодек: AC-3
Битрейт аудио: 448 Кбит/сек

Media info:

Формат : AVI
Формат/Информация : Audio Video Interleave
Размер файла : 1,47 Гбайт
Продолжительность : 1 ч. 30 м.
Общий поток : 2326 Кбит/сек
Программа кодирования : VirtualDubMod 1.5.4.1 (build 2178/release)
Библиотека кодирования : VirtualDubMod build 2178/release
Видео
Идентификатор : 0
Формат : MPEG-4 Visual
Профиль формата : Advanced [email protected]
Параметр BVOP формата : 1
Параметр QPel формата : Нет
Параметр GMC формата : Без точки перехода
Параметр матрицы формата : Выборочная
Идентификатор кодека : XVID
Идентификатор кодека/Подсказка : XviD
Продолжительность : 1 ч. 30 м.
Битрейт : 1870 Кбит/сек
Ширина : 704 пикселя
Высота : 528 пикселей
Соотношение сторон : 4:3
Частота кадров : 29,970 кадров/сек
Цветовое пространство : YUV
Субдискретизация насыщенности : 4:2:0
Битовая глубина : 8 бит
Тип развёртки : Прогрессивная
Метод сжатия : С потерями
Бит/(Пиксели*Кадры) : 0.168
Размер потока : 1,18 Гбайт (80%)
Библиотека кодирования : XviD 1.2.0.dev47 (UTC 2006-11-01)
Аудио
Идентификатор : 1
Формат : AC-3
Формат/Информация : Audio Coding 3
Расширение режима : CM (complete main)
Параметр Endianness формата : Big
Идентификатор кодека : 2000
Продолжительность : 1 ч. 30 м.
Вид битрейта : Постоянный
Битрейт : 448 Кбит/сек
Каналы : 6 каналов
Расположение каналов : Front: L C R, Side: L R, LFE
Частота : 48,0 КГц
Битовая глубина : 16 бит
Метод сжатия : С потерями
Размер потока : 289 Мбайт (19%)
Выравнивание : Разделение по промежуткам
Продолжительность промежутка : 96 мс. (2,88 видеокадра)
Время предзагрузки промежутка : 96 мс.
Язык : Russian
Скриншоты:

Время раздачи: с 8:00 до 24:00

Стивен Кинг - Грузовики (Зона 51)/Trucks. 1997 год

Русское название: Грузовики (Зона 51)
Оригинальное название: Trucks
Год выпуска: 1997
Жанр: Ужасы, Фэнтези, Триллер
Описание фильма: Вблизи "Зоны 51", где были замечены НЛО, начинают происходить невероятные события: никем не управляемые мощные грузовики оживают и начинают преследовать своих водителей, а затем и всех людей вокруг, убивая их самыми зверскими и изощренными способами. Несколько местных жителей и приезжих, прибывших в надежде увидеть НЛО, оказываются отрезанными от внешнего мира. Удастся ли им спастись, или армада грузовиков-убийц во главе с "Королем автострады" - 18-ти колесным рефрижератором загонит их в угол?
Режиссер: Крис Томсон /Chris Thomson/
Актеры: Тимоти Басфилд /Timothy Busfield/, Бренда Бэкки /Brenda Bakke/, Эйдан Дивайн /Aidan Devine/, Джэй Бразо /Jay Brazeau/, Брендан Флетчер /Brendan Fletcher/
Продолжительность: 01:34:50
Перевод: Профессиональный многоголосный
Видеокодек: DivX
Битрейт видео: 894 Кбит/сек
Размер кадра: 894х640
Качество видео: DVDrip
Аудиокодек: MP3
Битрейт аудио: 128 Кбит/сек

Media info:

Формат : AVI
Формат/Информация : Audio Video Interleave
Размер файла : 700 Мбайт
Продолжительность : 1 ч. 34 м.
Общий поток : 1031 Кбит/сек
Программа кодирования : VirtualDubMod 1.5.10.1 (build 2439/release)
Библиотека кодирования : VirtualDubMod build 2439/release
Видео
Идентификатор : 0
Формат : MPEG-4 Visual
Параметр BVOP формата : 1
Параметр QPel формата : Нет
Параметр GMC формата : Без точки перехода
Параметр матрицы формата : Default (H.263)
Режим смешивания : Сжатый битовый поток
Идентификатор кодека : DX50
Идентификатор кодека/Подсказка : DivX 5
Продолжительность : 1 ч. 34 м.
Битрейт : 894 Кбит/сек
Ширина : 640 пикселей
Высота : 336 пикселей
Соотношение сторон : 1,905
Частота кадров : 23,976 кадра/сек
Цветовое пространство : YUV
Субдискретизация насыщенности : 4:2:0
Битовая глубина : 8 бит
Тип развёртки : Прогрессивная
Метод сжатия : С потерями
Бит/(Пиксели*Кадры) : 0.173
Размер потока : 607 Мбайт (87%)
Библиотека кодирования : DivX 5.0.5 (UTC 2003-04-24)
Аудио
Идентификатор : 1
Формат : MPEG Audio
Версия формата : Version 1
Профиль формата : Layer 3
Режим : Joint stereo
Идентификатор кодека : 55
Идентификатор кодека/Подсказка : MP3
Продолжительность : 1 ч. 34 м.
Вид битрейта : Постоянный
Битрейт : 128 Кбит/сек
Каналы : 2 канала
Частота : 44,1 КГц
Метод сжатия : С потерями
Задержка видео : 16 мс.
Размер потока : 86,9 Мбайт (12%)
Выравнивание : Разделение по промежуткам
Продолжительность промежутка : 42 мс. (1,00 видеокадр)
Время предзагрузки промежутка : 500 мс.
Скриншоты:

Время раздачи: с 8:00 до 24:00

Стивен Кинг - Ночной летчик/Night Flier. 1997 год

Русское название: Ночной летчик
Оригинальное название: Night Flier
Год выпуска: 1997
Жанр: Ужасы, Фэнтези, Триллер
Описание фильма: Загадочный пилот уничтожает всех, кто попадается ему в пути, оставляя за собой след из обескровленных трупов. Черный самолет перемещается из одного пункта в другой, и управляется то ли призраком, то ли вампиром. Репортер Ричард Диз, работающий в одной из газет, падкой на сенсации, рискуя жизнью, решает выяснить, кто же этот убийца: "кровавый красный барон", возникший из прошлого, чтобы вселить в людей ужас, или фантомная реализация ночных кошмаров? И он отправляется вдогонку за ночным призраком. Что же его ждет, когда они наконец встретяться...
Режиссер: Марк Павиа /Mark Pavia/
Актеры: Мигель Феррер /Miguel Ferrer/, Джули Энтвисл /Julie Entwisle/, Мишель Х. Мосс /Michael H. Moss/, Джон Беннес /John Bennes/, Беверли Скиннер /Beverly Skinner/
Продолжительность: 01:29:17
Перевод: Профессиональный многоголосный
Видеокодек: XviD
Битрейт видео: 930 Кбит/сек
Размер кадра: 512х384
Качество видео: DVDrip
Аудиокодек: MP3
Битрейт аудио: 160 Кбит/сек

Media info:

Формат : AVI
Формат/Информация : Audio Video Interleave
Размер файла : 700 Мбайт
Продолжительность : 1 ч. 29 м.
Общий поток : 1100 Кбит/сек
Программа кодирования : VirtualDubMod 1.5.10.1 (build 2366/release)
Библиотека кодирования : VirtualDubMod build 2366/release
Видео
Идентификатор : 0
Формат : MPEG-4 Visual
Профиль формата : [email protected]
Параметр BVOP формата : Нет
Параметр QPel формата : Нет
Параметр GMC формата : Без точки перехода
Параметр матрицы формата : Default (H.263)
Идентификатор кодека : XVID
Идентификатор кодека/Подсказка : XviD
Продолжительность : 1 ч. 29 м.
Битрейт : 930 Кбит/сек
Ширина : 512 пикселей
Высота : 384 пикселя
Соотношение сторон : 4:3
Частота кадров : 25,000 кадров/сек
Цветовое пространство : YUV
Субдискретизация насыщенности : 4:2:0
Битовая глубина : 8 бит
Тип развёртки : Прогрессивная
Метод сжатия : С потерями
Бит/(Пиксели*Кадры) : 0.189
Размер потока : 592 Мбайт (85%)
Библиотека кодирования : XviD 0.0.09 (UTC 2003-03-25)
Аудио
Идентификатор : 1
Формат : MPEG Audio
Версия формата : Version 1
Профиль формата : Layer 3
Режим : Joint stereo
Идентификатор кодека : 55
Идентификатор кодека/Подсказка : MP3
Продолжительность : 1 ч. 29 м.
Вид битрейта : Постоянный
Битрейт : 160 Кбит/сек
Каналы : 2 канала
Частота : 44,1 КГц
Метод сжатия : С потерями
Задержка видео : 9 мс.
Размер потока : 102 Мбайт (15%)
Выравнивание : Разделение по промежуткам
Продолжительность промежутка : 40 мс. (1,00 видеокадр)
Время предзагрузки промежутка : 500 мс.
Скриншоты:

Время раздачи: с 8:00 до 24:00

Стивен Кинг - Дети кукурузы 5: Поля страха / Children of the Corn V: Fields of Terror. 1998 год

Русское название: Дети кукурузы 5: Поля страха
Оригинальное название: Children of the Corn V: Fields of Terror
Год выпуска: 1998
Жанр: Ужасы, Фэнтези, Триллер
Описание фильма: К печально известным уже по четырем фильмам кукурузным полям направляются на машинах две компании. Одна из девушек по имени Элисон ищет своего младшего брата Джейкоба, ушедшего несколько лет тому назад из дома, чтобы избавиться от побоев отца. Он нашел в полях Небраски новый дом, где дети живут в чистоте, без греха. Руководит колонией Люк, взрослый мужчина, объяснивший чужакам, что он нашел в поле брошенного умирать ребенка. С этого времени начался прием новых детей, по разным причинам уходящих в кукурузу. По его теории дети появляются на свет чистыми, без греха, и только родители, взрослые, окружающий мир портят их чистые души. Сюда, в кукурузу, где правит таинственное божество, взрослых не допускают, а если уж они переступили запретную черту, их ждет страшная смерть.
Режиссер: Итэн Уайли /Ethan Wiley/
Актеры: Стэйси Галина /Stacy Galina/, Алексис Аркетт /Alexis Arquette/, Эдам Уайли /Adam Wylie/, Грег Вон /Greg Vaughan/, Эва Мендес /Eva Mendez/, Ахмет Заппа /Ahmet Zappa/
Продолжительность: 01:19:33
Перевод: Профессиональный многоголосный
Видеокодек: DivX
Битрейт видео: 1091 Кбит/сек
Размер кадра: 608х352
Качество видео: DVDrip
Аудиокодек: MP3
Битрейт аудио: 128 Кбит/сек

Media info:

Формат : AVI
Формат/Информация : Audio Video Interleave
Размер файла : 700 Мбайт
Продолжительность : 1 ч. 19 м.
Общий поток : 1229 Кбит/сек
Название фильма : Los.Chicos.Del.Maiz.V.Campos.De.Terror
Режиссёр : ExPeRienCe
Тема : Los.Chicos.Del.Maiz.V.Campos.De.Terror
Программа кодирования : VirtualDubMod 1.5.10.2 (build 2540/release)
Библиотека кодирования : VirtualDubMod build 2540/release
Видео
Идентификатор : 0
Формат : MPEG-4 Visual
Параметр BVOP формата : Нет
Параметр QPel формата : Нет
Параметр GMC формата : Без точки перехода
Параметр матрицы формата : Default (H.263)
Идентификатор кодека : DX50
Идентификатор кодека/Подсказка : DivX 5
Продолжительность : 1 ч. 19 м.
Битрейт : 1091 Кбит/сек
Ширина : 608 пикселей
Высота : 352 пикселя
Соотношение сторон : 1,727
Частота кадров : 25,000 кадров/сек
Цветовое пространство : YUV
Субдискретизация насыщенности : 4:2:0
Битовая глубина : 8 бит
Тип развёртки : Прогрессивная
Метод сжатия : С потерями
Бит/(Пиксели*Кадры) : 0.204
Размер потока : 621 Мбайт (89%)
Библиотека кодирования : DivX 5.0.5 (UTC 2003-04-24)
Аудио
Идентификатор : 1
Формат : MPEG Audio
Версия формата : Version 1
Профиль формата : Layer 3
Режим : Joint stereo
Расширение режима : MS Stereo
Идентификатор кодека : 55
Идентификатор кодека/Подсказка : MP3
Продолжительность : 1 ч. 19 м.
Вид битрейта : Постоянный
Битрейт : 128 Кбит/сек
Каналы : 2 канала
Частота : 48,0 КГц
Метод сжатия : С потерями
Размер потока : 72,9 Мбайт (10%)
Выравнивание : Соединение по промежуткам
Продолжительность промежутка : 40 мс. (1,00 видеокадр)
Время предзагрузки промежутка : 504 мс.
Скриншоты:

Время раздачи: с 8:00 до 24:00

Стивен Кинг - Способный ученик/Apt Pupil.1998 год

Русское название: Способный ученик
Оригинальное название: Apt Pupil
Год выпуска: 1998
Жанр: Ужасы, Фэнтези, Триллер
Описание фильма: История - любимый предмет американского школьника Тодда Боудена. Со страхом и трепетом он листает летопись кровавого прошлого, вглядываясь в лица безымянных жертв. Неожиданно мальчик выясняет, что его сосед - жестокий нацистский преступник, сумевший избежать правосудия. В обмен на свое молчание подросток требует, чтобы старик открыл ему зловещие тайны самой мрачной страницы в истории человечества. Пока его сверстники штудируют физику и математику, Тодд изучает страшную науку, которую не проходят в школе -науку зла. Его сосед оказывается хорошим учителем. В тихом запуганном старике снова просыпается кровавый надзиратель концлагеря Курт Дюссандер. И для способного ученика наступает время решающего экзамена...
Режиссер: Брайан Сингер /Bryan Singer/
Актеры: Иан МакКеллен /Ian McKellen/, Бред Ренфро /Brad Renfro/, Брюс Девисон /Bruce Davison/, Элиас Котеас /Elias Koteas/, Джо Мортон /Joe Morton/
Продолжительность: 01:46:31
Перевод: Профессиональный многоголосный
Видеокодек: DivX
Битрейт видео: 781 Кбит/сек
Размер кадра: 640х272
Качество видео: DVDrip
Аудиокодек: MP3
Битрейт аудио: 128 Кбит/сек

Media info:

Формат : AVI
Формат/Информация : Audio Video Interleave
Размер файла : 706 Мбайт
Продолжительность : 1 ч. 46 м.
Режим общего битрейта : Переменный
Общий поток : 926 Кбит/сек
Программа кодирования : VirtualDubMod 1.5.10.1 (build 2366/release)
Библиотека кодирования : VirtualDubMod build 2366/release
Видео
Идентификатор : 0
Формат : MPEG-4 Visual
Параметр BVOP формата : 1
Параметр QPel формата : Нет
Параметр GMC формата : Без точки перехода
Параметр матрицы формата : Default (H.263)
Режим смешивания : Сжатый битовый поток
Идентификатор кодека : DX50
Идентификатор кодека/Подсказка : DivX 5
Продолжительность : 1 ч. 46 м.
Битрейт : 781 Кбит/сек
Ширина : 640 пикселей
Высота : 272 пикселя
Соотношение сторон : 2,35:1
Частота кадров : 25,000 кадров/сек
Цветовое пространство : YUV
Субдискретизация насыщенности : 4:2:0
Битовая глубина : 8 бит
Тип развёртки : Прогрессивная
Метод сжатия : С потерями
Бит/(Пиксели*Кадры) : 0.179
Размер потока : 596 Мбайт (84%)
Библиотека кодирования : DivX 5.0.5 (UTC 2003-04-24)
Аудио
Идентификатор : 1
Формат : MPEG Audio
Версия формата : Version 1
Профиль формата : Layer 3
Режим : Joint stereo
Расширение режима : MS Stereo
Идентификатор кодека : 55
Идентификатор кодека/Подсказка : MP3
Продолжительность : 1 ч. 46 м.
Вид битрейта : Переменный
Битрейт : 128 Кбит/сек
Каналы : 2 канала
Частота : 44,1 КГц
Метод сжатия : С потерями
Размер потока : 101 Мбайт (14%)
Выравнивание : Соединение по промежуткам
Продолжительность промежутка : 26 мс. (0,65 видеокадр)
Время предзагрузки промежутка : 144 мс.
Библиотека кодирования : LAME3.90.
Настройки программы : -m j -V 4 -q 2 -lowpass 17.6 --abr 128
Скриншоты:

Время раздачи: с 8:00 до 24:00

Стивен Кинг - Иногда они возвращаются... снова и снова/Sometimes They Come Back... Sometimes They Come Back... for More. 1999 год

Русское название: Иногда они возвращаются... снова и снова
Оригинальное название: Sometimes They Come Back... Sometimes They Come Back
Год выпуска: 1999
Жанр: Ужасы, Фэнтези, Триллер
Описание фильма: Спасательная команда приземляется в Антарктиде на плавучую полярную станцию. Кеча и Кэйли посылают выяснить и исследовать таинственные смерти на научной станции. Однако когда они добираются туда, то обнаруживают, что только два человека остались в живых. Это - лейтенант Сабонски и доктор Дженнифер Уиллс. Однако, когда на улице 70 градусов ниже нуля, кто или ЧТО может выжить?
Режиссер: Дэниел Зелик Берк /Daniel Zelik Berk
Актеры: Клэйтон Ронер /Clayton Rohner/, Фэйт Форд /Faith Ford/, Макс Перлих /Max Perlich/, Чэйз Мастерсон /Chase Masterson/, Дэмиэн Чапа /Damian Chapa/
Продолжительность: 01:29:21
Перевод: Профессиональный многоголосный
Видеокодек: DivX
Битрейт видео: 954 Кбит/сек
Размер кадра: 640х336
Качество видео: DVDrip
Аудиокодек: MP3
Битрейт аудио: 128 Кбит/сек

Media info:

Формат : AVI
Формат/Информация : Audio Video Interleave
Размер файла : 701 Мбайт
Продолжительность : 1 ч. 29 м.
Общий поток : 1091 Кбит/сек
Программа кодирования : VirtualDubMod 1.5.10.1 (build 2439/release)
Библиотека кодирования : VirtualDubMod build 2439/release
Видео
Идентификатор : 0
Формат : MPEG-4 Visual
Параметр BVOP формата : 1
Параметр QPel формата : Нет
Параметр GMC формата : Без точки перехода
Параметр матрицы формата : Default (H.263)
Режим смешивания : Сжатый битовый поток
Идентификатор кодека : DX50
Идентификатор кодека/Подсказка : DivX 5
Продолжительность : 1 ч. 29 м.
Битрейт : 954 Кбит/сек
Ширина : 640 пикселей
Высота : 336 пикселей
Соотношение сторон : 1,905
Частота кадров : 23,976 кадра/сек
Цветовое пространство : YUV
Субдискретизация насыщенности : 4:2:0
Битовая глубина : 8 бит
Тип развёртки : Прогрессивная
Метод сжатия : С потерями
Бит/(Пиксели*Кадры) : 0.185
Размер потока : 612 Мбайт (87%)
Библиотека кодирования : DivX 5.0.5 (UTC 2003-04-24)
Аудио
Идентификатор : 1
Формат : MPEG Audio
Версия формата : Version 1
Профиль формата : Layer 3
Режим : Joint stereo
Расширение режима : MS Stereo
Идентификатор кодека : 55
Идентификатор кодека/Подсказка : MP3
Продолжительность : 1 ч. 29 м.
Вид битрейта : Постоянный
Битрейт : 128 Кбит/сек
Каналы : 2 канала
Частота : 44,1 КГц
Метод сжатия : С потерями
Задержка видео : 16 мс.
Размер потока : 82,2 Мбайт (12%)
Выравнивание : Разделение по промежуткам
Продолжительность промежутка : 42 мс. (1,00 видеокадр)
Время предзагрузки промежутка : 500 мс.
Скриншоты:

Время раздачи: с 8:00 до 24:00

Стивен Кинг - Дети кукурузы 666: Айзек вернулся / Children of the Corn 666: Isaac's Return. 1999 год

Русское название: Дети кукурузы 666: Айзек вернулся
Оригинальное название: Children of the Corn 666: Isaac's Return
Год выпуска: 1999
Жанр: Ужасы, Фэнтези, Триллер
Описание фильма: Ханна возвращается в городок Гэтлин, чтобы выяснить тайну своего рождения, тщательно скрывавшуюся приемными родителями. Ханна приехала в город, где жили дети секстантов, чтобы родить ребенка, который станет новым мессией. Айзэк приходит в себя после комы, в которой пролежал много лет. Сумеет ли "воскресший" Айзек исполнить пророчество и устроить рождение этого ребенка?
Режиссер: Кари Скоглэнд /Kari Skogland/
Актеры: Нэнси Аллен /Nancy Allen/, Нэтали Рэмси /Natalie Ramsey/, Пол Попович /Paul Popowich/, Аликс Коромзай /Alix Koromzay/, Джон Пэтрик Уайт /John Patrick White/, Нэйтэн Бекстон /Nathan Bexton/
Продолжительность: 01:18:49
Перевод: Профессиональный многоголосный
Видеокодек: DivX
Битрейт видео: 1019 Кбит/сек
Размер кадра: 640х352
Качество видео: DVDrip
Аудиокодек: MP3
Битрейт аудио: 192 Кбит/сек

Media info:

Формат : AVI
Формат/Информация : Audio Video Interleave
Размер файла : 688 Мбайт
Продолжительность : 1 ч. 18 м.
Общий поток : 1221 Кбит/сек
Программа кодирования : VirtualDubMod 1.5.10.2 (build 2540/release)
Библиотека кодирования : VirtualDubMod build 2540/release
Видео
Идентификатор : 0
Формат : MPEG-4 Visual
Параметр BVOP формата : Да
Параметр QPel формата : Нет
Параметр GMC формата : Без точки перехода
Параметр матрицы формата : Default (H.263)
Идентификатор кодека : DX50
Идентификатор кодека/Подсказка : DivX 5
Продолжительность : 1 ч. 18 м.
Битрейт : 1019 Кбит/сек
Ширина : 640 пикселей
Высота : 352 пикселя
Соотношение сторон : 16:9
Частота кадров : 25,000 кадров/сек
Цветовое пространство : YUV
Субдискретизация насыщенности : 4:2:0
Битовая глубина : 8 бит
Тип развёртки : Прогрессивная
Метод сжатия : С потерями
Бит/(Пиксели*Кадры) : 0.181
Размер потока : 574 Мбайт (83%)
Библиотека кодирования : DivX 5.0.2 (UTC 2002-05-16)
Аудио
Идентификатор : 1
Формат : MPEG Audio
Версия формата : Version 1
Профиль формата : Layer 3
Режим : Joint stereo
Идентификатор кодека : 55
Идентификатор кодека/Подсказка : MP3
Продолжительность : 1 ч. 18 м.
Вид битрейта : Постоянный
Битрейт : 192 Кбит/сек
Каналы : 2 канала
Частота : 32,0 КГц
Метод сжатия : С потерями
Размер потока : 108 Мбайт (16%)
Выравнивание : Соединение по промежуткам
Продолжительность промежутка : 40 мс. (1,00 видеокадр)
Время предзагрузки промежутка : 504 мс.
Скриншоты:

Время раздачи: с 8:00 до 24:00

Стивен Кинг - Зеленая Миля /The Green Mile. 1999 год

Русское название: Зеленая Миля
Оригинальное название: The Green Mile
Год выпуска: 1999
Жанр: Ужасы, Фэнтези, Триллер
Описание фильма: Обвиненный в страшном преступлении, Джон Коффи оказывается в блоке смертников тюрьмы "Холодная гора". Вновь прибывший обладал поразительным ростом и был пугающе спокоен, что, впрочем, никак не влияло на отношение к нему начальника блока Пола Эджкомба, привыкшего исполнять приговор. Гигант удивил всех позже, когда выяснилось, что он обладает невероятной магической силой...
Режиссер: Фрэнк Дэрабонт /Frank Darabont/
Актеры: Том Хэнкс /Tom Hanks/, Дэвид Морс /David Morse/, Бонни Хант /Bonnie Hunt/, Майкл Кларк Дункэн /Michael Clarke Duncan/, Джеймс Кромуэлл /James Cromwell/
Продолжительность: 03:00:56
Перевод: Профессиональный многоголосный
Видеокодек: DivX
Битрейт видео: 936 Кбит/сек
Размер кадра: 640х336
Качество видео: DVDrip
Аудиокодек: MP3
Битрейт аудио: 131 Кбит/сек

Media info:

Формат : AVI
Формат/Информация : Audio Video Interleave
Размер файла : 1,36 Гбайт
Продолжительность : 3 ч. 0 м.
Режим общего битрейта : Переменный
Общий поток : 1080 Кбит/сек
Название фильма : Stephen King's The Green Mile (1999)
Режиссёр : WIDOK
Тема : Stephen King's The Green Mile (1999)
Программа кодирования : VirtualDubMod 1.5.10.2 (build 2540/release)
Библиотека кодирования : VirtualDubMod build 2540/release
Правообладатель : DVDRip
Примечание : Drama / Fantasy
Видео
Идентификатор : 0
Формат : MPEG-4 Visual
Профиль формата : Advanced [email protected]
Параметр BVOP формата : 1
Параметр QPel формата : Нет
Параметр GMC формата : Без точки перехода
Параметр матрицы формата : Выборочная
Идентификатор кодека : DIVX
Идентификатор кодека/Информация : Project Mayo
Идентификатор кодека/Подсказка : DivX 4
Продолжительность : 3 ч. 0 м.
Битрейт : 936 Кбит/сек
Ширина : 640 пикселей
Высота : 336 пикселей
Соотношение сторон : 1,905
Частота кадров : 25,000 кадров/сек
Цветовое пространство : YUV
Субдискретизация насыщенности : 4:2:0
Битовая глубина : 8 бит
Тип развёртки : Прогрессивная
Метод сжатия : С потерями
Бит/(Пиксели*Кадры) : 0.174
Размер потока : 1,18 Гбайт (87%)
Библиотека кодирования : XviD 1.1.0 RC (UTC 2005-11-22)
Аудио
Идентификатор : 1
Формат : MPEG Audio
Версия формата : Version 1
Профиль формата : Layer 3
Режим : Joint stereo
Расширение режима : MS Stereo
Идентификатор кодека : 55
Идентификатор кодека/Подсказка : MP3
Продолжительность : 3 ч. 0 м.
Вид битрейта : Переменный
Битрейт : 131 Кбит/сек
Минимальный битрейт : 32,0 Кбит/сек
Каналы : 2 канала
Частота : 48,0 КГц
Метод сжатия : С потерями
Размер потока : 170 Мбайт (12%)
Выравнивание : Соединение по промежуткам
Продолжительность промежутка : 24 мс. (0,60 видеокадр)
Время предзагрузки промежутка : 140 мс.
Библиотека кодирования : LAME3.97b
Настройки программы : -m j -V 4 -q 3 -lowpass 17.5 --vbr-new -b 32
Скриншоты:

Время раздачи: с 8:00 до 24:00

Стивен Кинг - Буря столетия/Storm of the Century.1999 год

Русское название: Буря столетия
Оригинальное название: Storm of the Century
Год выпуска: 1999
Жанр: Ужасы, Фэнтези, Триллер
Описание фильма: На маленьком острове Литтл Толл у побережья штата Мэн живут люди, которые умеют хранить секреты, какими бы темными они ни были. Они держат в тайне свои грехи друг от друга, а общие темные тайны никогда не раскрывают перед людьми с материка. Во время страшной снежной бури их островок выбирает для себя престарелый демон, которому необходим ученик. Он из тех, имя которым легион. Учеником должен стать один из семерых детей, живущих на острове. Отдать ребенка жители должны добровольно. Чтобы просьба была убедительней, демон убивает нескольких жителей, а некоторых заставляет покончить жизнь самоубийством, не оставив ни в одном и капли сомнения в том, что он не человек. Если же ребенка не отдадут, то жители острова погибнут в океане, как это уже было один раз в XVI веке. Какой выбор сделают жители острова?
Режиссер: Крэйг Р. Баксли /Craig R. Baxley/
Актеры: Тим Дэйли /Timothy Daly/, Колм Фиори /Colm Feore/, Дебра Фарентино /Debrah Farentino/, Кэйси Семашко /Casey Siemaszko/, Джеффри Де Манн /Jeffrey DeMunn/
Продолжительность: 04:20:17
Перевод: Профессиональный многоголосный
Видеокодек: XviD
Битрейт видео: 864 Кбит/сек
Размер кадра: 521х384
Качество видео: DVDrip
Аудиокодек: AC-3
Битрейт аудио: 192 Кбит/сек

Media info:CD1

Формат : AVI
Формат/Информация : Audio Video Interleave
Размер файла : 701 Мбайт
Продолжительность : 1 ч. 12 м.
Общий поток : 1360 Кбит/сек
Программа кодирования : VirtualDubMod 1.5.10.1 (build 2439/release)
Библиотека кодирования : VirtualDubMod build 2439/release
Видео
Идентификатор : 0
Формат : MPEG-4 Visual
Параметр BVOP формата : Нет
Параметр QPel формата : Нет
Параметр GMC формата : Без точки перехода
Параметр матрицы формата : Default (H.263)
Идентификатор кодека : XVID
Идентификатор кодека/Подсказка : XviD
Продолжительность : 1 ч. 12 м.
Битрейт : 864 Кбит/сек
Ширина : 512 пикселей
Высота : 384 пикселя
Соотношение сторон : 4:3
Частота кадров : 23,976 кадра/сек
Цветовое пространство : YUV
Субдискретизация насыщенности : 4:2:0
Битовая глубина : 8 бит
Тип развёртки : Прогрессивная
Метод сжатия : С потерями
Бит/(Пиксели*Кадры) : 0.246
Размер потока : 597 Мбайт (85%)
Аудио
Идентификатор : 1
Формат : AC-3
Формат/Информация : Audio Coding 3
Расширение режима : CM (complete main)
Параметр Endianness формата : Big
Идентификатор кодека : 2000
Продолжительность : 1 ч. 12 м.
Вид битрейта : Постоянный
Битрейт : 192 Кбит/сек
Каналы : 2 канала
Расположение каналов : Front: L R
Частота : 48,0 КГц
Битовая глубина : 16 бит
Метод сжатия : С потерями
Размер потока : 99,0 Мбайт (14%)
Выравнивание : Разделение по промежуткам
Продолжительность промежутка : 42 мс. (1,00 видеокадр)
Время предзагрузки промежутка : 500 мс.

Media info:CD2

Формат : AVI
Формат/Информация : Audio Video Interleave
Размер файла : 700 Мбайт
Продолжительность : 1 ч. 31 м.
Общий поток : 1065 Кбит/сек
Программа кодирования : VirtualDubMod 1.5.10.1 (build 2439/release)
Библиотека кодирования : VirtualDubMod build 2439/release
Видео
Идентификатор : 0
Формат : MPEG-4 Visual
Параметр BVOP формата : Нет
Параметр QPel формата : Нет
Параметр GMC формата : Без точки перехода
Параметр матрицы формата : Default (H.263)
Идентификатор кодека : XVID
Идентификатор кодека/Подсказка : XviD
Продолжительность : 1 ч. 31 м.
Битрейт : 864 Кбит/сек
Ширина : 512 пикселей
Высота : 384 пикселя
Соотношение сторон : 4:3
Частота кадров : 23,976 кадра/сек
Цветовое пространство : YUV
Субдискретизация насыщенности : 4:2:0
Битовая глубина : 8 бит
Тип развёртки : Прогрессивная
Метод сжатия : С потерями
Бит/(Пиксели*Кадры) : 0.183
Размер потока : 568 Мбайт (81%)
Аудио
Идентификатор : 1
Формат : AC-3
Формат/Информация : Audio Coding 3
Расширение режима : CM (complete main)
Параметр Endianness формата : Big
Идентификатор кодека : 2000
Продолжительность : 1 ч. 31 м.
Вид битрейта : Постоянный
Битрейт : 192 Кбит/сек
Каналы : 2 канала
Расположение каналов : Front: L R
Частота : 48,0 КГц
Битовая глубина : 16 бит
Метод сжатия : С потерями
Размер потока : 126 Мбайт (18%)
Выравнивание : Разделение по промежуткам
Продолжительность промежутка : 42 мс. (1,00 видеокадр)
Время предзагрузки промежутка : 500 мс.

Media info:CD3

Формат : AVI
Формат/Информация : Audio Video Interleave
Размер файла : 700 Мбайт
Продолжительность : 1 ч. 32 м.
Общий поток : 1055 Кбит/сек
Программа кодирования : VirtualDubMod 1.5.10.1 (build 2439/release)
Библиотека кодирования : VirtualDubMod build 2439/release
Видео
Идентификатор : 0
Формат : MPEG-4 Visual
Параметр BVOP формата : Нет
Параметр QPel формата : Нет
Параметр GMC формата : Без точки перехода
Параметр матрицы формата : Default (H.263)
Идентификатор кодека : XVID
Идентификатор кодека/Подсказка : XviD
Продолжительность : 1 ч. 32 м.
Битрейт : 864 Кбит/сек
Ширина : 512 пикселей
Высота : 384 пикселя
Соотношение сторон : 4:3
Частота кадров : 23,976 кадра/сек
Цветовое пространство : YUV
Субдискретизация насыщенности : 4:2:0
Битовая глубина : 8 бит
Тип развёртки : Прогрессивная
Метод сжатия : С потерями
Бит/(Пиксели*Кадры) : 0.181
Размер потока : 566 Мбайт (81%)
Аудио
Идентификатор : 1
Формат : AC-3
Формат/Информация : Audio Coding 3
Расширение режима : CM (complete main)
Параметр Endianness формата : Big
Идентификатор кодека : 2000
Продолжительность : 1 ч. 32 м.
Вид битрейта : Постоянный
Битрейт : 192 Кбит/сек
Каналы : 2 канала
Расположение каналов : Front: L R
Частота : 48,0 КГц
Битовая глубина : 16 бит
Метод сжатия : С потерями
Размер потока : 127 Мбайт (18%)
Выравнивание : Разделение по промежуткам
Продолжительность промежутка : 42 мс. (1,00 видеокадр)
Время предзагрузки промежутка : 500 мс.
Скриншоты:

Время раздачи: с 8:00 до 24:00

Стивен Кинг - Кэрри 2: Ярость / The Rage: Carrie 2 1999 год

Русское название: Кэрри 2: Ярость
Оригинальное название: The Rage: Carrie 2
Год выпуска: 1999
Жанр: Ужасы, Фэнтези, Триллер
Описание фильма: Продолжение знаменитого триллера, снятого по роману Стивена Кинга. Рэчел такая же обычная студентка, как и другие середнячки, пытающаяся пережить выпускной семестр без лишних осложнений. К несчастью, она оказывается в центре скандала, когда дурацкая выходка, организованная компанией озабоченных шутников, заканчивается осложнениями.
Когда одного из них забирают в полицию для допроса, подростки решают подставить и публично унизить Рэчел. Однако шутки с ней — опаснее, чем игра с огнем. Когда терпение девушки исчерпывается, ее гнев взрывается, как пороховая бочка, высвобождая такую мощь, что веселая вечеринка превращается в кромешный огненный ад.
Режиссер: Кетт Шеа/Siberian salmons of Shoa
Актеры: Эмили Берджил/Emily Berdzhil, Джейсон Лондон/Jason London, Дилан Бруно/Dylan Bruno, Эми Ирвинг/Ami Irving
Продолжительность: 01:40:25
Перевод: Профессиональный многоголосный
Видеокодек: XviD
Битрейт видео: 1382 Кбит/сек
Размер кадра: 640х372
Качество видео: DVDrip
Аудио #1
Аудиокодек: AC-3
Битрейт аудио: 192 Кбит/сек
Аудио #2
Аудиокодек: MP3
Битрейт аудио: 96,0 Кбит/сек

Media info:

Формат : AVI
Формат/Информация : Audio Video Interleave
Размер файла : 1,18 Гбайт
Продолжительность : 1 ч. 40 м.
Общий поток : 1685 Кбит/сек
Программа кодирования : VirtualDubMod 1.5.10.2 (build 2540/release)
Библиотека кодирования : VirtualDubMod build 2540/release
Видео
Идентификатор : 0
Формат : MPEG-4 Visual
Профиль формата : [email protected]
Параметр BVOP формата : 2
Параметр QPel формата : Нет
Параметр GMC формата : Без точки перехода
Параметр матрицы формата : Default (H.263)
Режим смешивания : Сжатый битовый поток
Идентификатор кодека : XVID
Идентификатор кодека/Подсказка : XviD
Продолжительность : 1 ч. 40 м.
Битрейт : 1382 Кбит/сек
Ширина : 680 пикселей
Высота : 372 пикселя
Соотношение сторон : 3:2
Соотношение сторон в оригинале : 1,85:1
Частота кадров : 25,000 кадров/сек
Цветовое пространство : YUV
Субдискретизация насыщенности : 4:2:0
Битовая глубина : 8 бит
Тип развёртки : Прогрессивная
Метод сжатия : С потерями
Бит/(Пиксели*Кадры) : 0.219
Размер потока : 993 Мбайт (82%)
Библиотека кодирования : XviD 1.1.0 Beta2 (UTC 2005-04-04)
Аудио #1
Идентификатор : 1
Формат : AC-3
Формат/Информация : Audio Coding 3
Расширение режима : CM (complete main)
Параметр Endianness формата : Big
Идентификатор кодека : 2000
Продолжительность : 1 ч. 40 м.
Вид битрейта : Постоянный
Битрейт : 192 Кбит/сек
Каналы : 2 канала
Расположение каналов : Front: L R
Частота : 48,0 КГц
Битовая глубина : 16 бит
Метод сжатия : С потерями
Размер потока : 138 Мбайт (11%)
Выравнивание : Соединение по промежуткам
Продолжительность промежутка : 40 мс. (1,00 видеокадр)
Время предзагрузки промежутка : 512 мс.
Аудио #2
Идентификатор : 2
Формат : MPEG Audio
Версия формата : Version 1
Профиль формата : Layer 3
Режим : Joint stereo
Расширение режима : MS Stereo
Идентификатор кодека : 55
Идентификатор кодека/Подсказка : MP3
Продолжительность : 1 ч. 40 м.
Вид битрейта : Постоянный
Битрейт : 96,0 Кбит/сек
Каналы : 2 канала
Частота : 48,0 КГц
Метод сжатия : С потерями
Размер потока : 69,0 Мбайт (6%)
Выравнивание : Разделение по промежуткам
Продолжительность промежутка : 40 мс. (1,00 видеокадр)
Время предзагрузки промежутка : 500 мс.
Скриншоты:

Время раздачи: с 8:00 до 24:00

Стивен Кинг - Сердца в Атлантиде/Hearts in Atlantis. 2000 год

Русское название: Сердца в Атлантиде
Оригинальное название: Hearts in Atlantis
Год выпуска: 2000
Жанр: Ужасы, Фэнтези, Триллер
Описание фильма: Летом 1960-го в жизни 11-летнего Бобби Гарфилда появился странный друг. Пожилой Тед Бротиган явился ниоткуда и поселился на втором этаже в доме Бобби и его матери Элизабет. С этого момента добрый незнакомец, хранящий некую тайну и знающий намного больше обычных людей, многое меняет в характере Бобби и его судьбе. Мальчик чувствует в себе доселе небывалые способности, а еще знает, что за Тедом охотятся какие-то люди, и готов сделать все, чтобы защитить нового друга…
Режиссер: Скотт Хикс /Scott Hicks/
Актеры: Энтони Хопкинс /Anthony Hopkins/, Антон Ельчин /Anton Yelchin/, Хоуп Дэвис /Hope Davis/, Мика Бурем /Mika Boorem/, Дэвид Морс /David Morse/
Продолжительность: 01:36:25
Перевод: Профессиональный многоголосный
Видеокодек: DivX
Битрейт видео: 1633 Кбит/сек
Размер кадра: 720х304
Качество видео: DVDrip
Аудиокодек: AC-3
Битрейт аудио: 384 Кбит/сек

Media info:

Формат : AVI
Формат/Информация : Audio Video Interleave
Размер файла : 1,37 Гбайт
Продолжительность : 1 ч. 36 м.
Общий поток : 2024 Кбит/сек
Программа кодирования : VirtualDubMod 1.5.4.1 (build 2178/release)
Библиотека кодирования : VirtualDubMod build 2178/release
Видео
Идентификатор : 0
Формат : MPEG-4 Visual
Параметр BVOP формата : 1
Параметр QPel формата : Нет
Параметр GMC формата : Без точки перехода
Параметр матрицы формата : Default (H.263)
Режим смешивания : Сжатый битовый поток
Идентификатор кодека : DX50
Идентификатор кодека/Подсказка : DivX 5
Продолжительность : 1 ч. 36 м.
Битрейт : 1633 Кбит/сек
Ширина : 720 пикселей
Высота : 304 пикселя
Соотношение сторон : 2,35:1
Частота кадров : 25,000 кадров/сек
Цветовое пространство : YUV
Субдискретизация насыщенности : 4:2:0
Битовая глубина : 8 бит
Тип развёртки : Прогрессивная
Метод сжатия : С потерями
Бит/(Пиксели*Кадры) : 0.298
Размер потока : 1,10 Гбайт (81%)
Библиотека кодирования : DivX 6.6.1.4
Аудио
Идентификатор : 1
Формат : AC-3
Формат/Информация : Audio Coding 3
Расширение режима : CM (complete main)
Параметр Endianness формата : Big
Идентификатор кодека : 2000
Продолжительность : 1 ч. 36 м.
Вид битрейта : Постоянный
Битрейт : 384 Кбит/сек
Каналы : 6 каналов
Расположение каналов : Front: L C R, Side: L R, LFE
Частота : 48,0 КГц
Битовая глубина : 16 бит
Метод сжатия : С потерями
Размер потока : 266 Мбайт (19%)
Выравнивание : Разделение по промежуткам
Продолжительность промежутка : 96 мс. (2,40 видеокадра)
Время предзагрузки промежутка : 96 мс.
Язык : Russian
Скриншоты:

Время раздачи: с 8:00 до 24:00
Вне форума [Профиль] [ЛС]
Похожие темы
Форум Тема Автор Торрент Отв. Посл. сообщение
./templates/default/images/folder_dl.gif Компьютерная литература Стивен Прата | Язык программирования C. Лекции и упражнения, 5-е издание (2013) [PDF] Omen
1 | 0

0 | 1275

13

2014-08-08 23:01
Omen Последнее
./templates/default/images/folder_dl.gif Компьютерная литература Язык программирования C. Лекции и упражнения. 6-е издание [Стивен Прата] [2013, Программирование на С, PCRec] R.G. Мастер-Класс O.S.A.
1 | 0

0 | 287

5

2015-08-19 20:21
O.S.A. Последнее
Показать сообщения:    
Ответить на тему

Текущее время: Сегодня 14:55

Часовой пояс: GMT + 3



Вы не можете начинать темы
Вы не можете отвечать на сообщения
Вы не можете редактировать свои сообщения
Вы не можете удалять свои сообщения
Вы не можете голосовать в опросах
Вы не можете прикреплять файлы к сообщениям
Вы не можете скачивать файлы