Сегодня идет свободное скачивание без начисления Download

Вы принадлежите мне / You Belong to Me (1941) DVDRip

Ответить на тему
 
Автор
Сообщение

Omen ®

Стаж: 4 года 1 месяц

Сообщений: 194359

Торрент-статистика

Пост 09-Янв-2013 04:44

[Цитировать]

-Вы принадлежите мне / You Belong to Me (1941) DVDRip-- Русское название: Вы принадлежите мне
Оригинальное название: You Belong to Me
Год выпуска: 1941
Страна: США | Columbia Pictures Corporation
Жанр: Мелодрама, Комедия
--Описание фильма:
Доктор Хант, для которой превыше всего в жизни профессиональная карьера, и миллионер мистер Кирк знакомятся на горнолыжном курорте. После стремительного ухаживания мистера Кирка они вступают в брак. Но на пути к их семейному счастью встаёт безудержная ревность мистера Кирка, умноженная на его обеспеченное финансовое положение и отсутствие четко выраженного смысла жизни. Казалось бы, этому браку не существовать, но, как известно, любовь способна на всё …

minyaev--Режиссер: Уэсли Рагглз
Актеры: Барбара Стэнвик, Генри Фонда, Эдгар Баканан, Роджер Кларк, Рут Доннелли, Мелвилл Купер, Ральф Питерс, Эллен Лоу ...
Продолжительность: 01:35:22
Перевод: Одноголосый закадровый [minyaev]
Язык субтитров: русские
Вид субтитров: Отдельным файлом

Дата мировой премьеры: 22 октября 1941
Видеокодек: DivX 5
Битрейт видео: ~1866 Кбит/сек
Размер кадра: 640*480
Качество видео: DVDRip
Аудио#1: AC-3 , 2 канала, 192 Кбит/сек, русский
Аудио#2: AC-3 , 2 канала, 192 Кбит/сек, английский (отдельным файлом)

MediaInfo:

Код:
Общее
Полное имя                               : :\\You Belong To Me 1941\You Belong To Me 1941.avi
Формат                                   : AVI
Формат/Информация                        : Audio Video Interleave
Профиль формата                          : OpenDML
Настройки формата                        : rec
Размер файла                             : 1,37 Гбайт
Продолжительность                        : 1 ч. 35 м.
Общий поток                              : 2063 Кбит/сек
Программа кодирования                    : AVI-Mux GUI 1.17.8.3, Feb 16 201019:42:50
Видео
Идентификатор                            : 0
Формат                                   : MPEG-4 Visual
Профиль формата                          : Advanced [email protected]
Параметр BVOP формата                    : 2
Параметр QPel формата                    : Нет
Параметр GMC формата                     : Без точки перехода
Параметр матрицы формата                 : Default (MPEG)
Идентификатор кодека                     : DX50
Идентификатор кодека/Подсказка           : DivX 5
Продолжительность                        : 1 ч. 35 м.
Битрейт                                  : 1866 Кбит/сек
Ширина                                   : 640 пикселей
Высота                                   : 480 пикселей
Соотношение сторон                       : 4:3
Частота кадров                           : 23,976 кадра/сек
Цветовое пространство                    : YUV
Субдискретизация насыщенности            : 4:2:0
Битовая глубина                          : 8 бит
Тип развёртки                            : Прогрессивная
Метод сжатия                             : С потерями
Бит/(Пиксели*Кадры)                      : 0.253
Размер потока                            : 1,24 Гбайт (90%)
Библиотека кодирования                   : XviD 1.2.1 (UTC 2008-12-04)
Аудио
Идентификатор                            : 1
Формат                                   : AC-3
Формат/Информация                        : Audio Coding 3
Расширение режима                        : CM (complete main)
Параметр Endianness формата              : Big
Идентификатор кодека                     : 2000
Продолжительность                        : 1 ч. 35 м.
Вид битрейта                             : Постоянный
Битрейт                                  : 192 Кбит/сек
Каналы                                   : 2 канала
Расположение каналов                     : Front: L R
Частота                                  : 48,0 КГц
Битовая глубина                          : 16 бит
Метод сжатия                             : С потерями
Размер потока                            : 131 Мбайт (9%)
Выравнивание                             : Соединение по промежуткам
Продолжительность промежутка             : 64  мс. (1,53 видеокадра)
Время предзагрузки промежутка            : 192  мс.
Заголовок                                : RUS
Скриншоты:          Время раздачи: 24/7 до первых 3-х скачавших, далее по возможности
Вне форума [Профиль] [ЛС]
Показать сообщения:    
Ответить на тему

Текущее время: Сегодня 01:16

Часовой пояс: GMT + 3



Вы не можете начинать темы
Вы не можете отвечать на сообщения
Вы не можете редактировать свои сообщения
Вы не можете удалять свои сообщения
Вы не можете голосовать в опросах
Вы не можете прикреплять файлы к сообщениям
Вы не можете скачивать файлы