Сегодня идет свободное скачивание без начисления Download

Снега Килиманджаро / The Snows of Kilimanjaro (1952) [H.264] DVDRip

Ответить на тему
 
Автор
Сообщение

Omen ®

Стаж: 4 года 1 месяц

Сообщений: 194394

Торрент-статистика

Пост 09-Янв-2013 04:44

[Цитировать]

-Снега Килиманджаро / The Snows of Kilimanjaro (1952) [H.264] DVDRip-«His Adventures . . . Like His Loves . . . Were Great and Exciting !»- Русское название: Снега Килиманджаро
Оригинальное название: The Snows of Kilimanjaro
Год выпуска: 1952
Жанр: Драма, Мелодрама, Приключения
Страна: США
Производство: 20th Century Fox Film Corporation
Описание фильма:
Тяжело раненный на охоте в Кении писатель Гарри Стрит, лежит в палатке у подножия Килиманджаро. Его жена Элен пытается вселить в умирающего желание бороться со смертью, но он погружен в воспоминания о прожитой жизни. Перед глазами проходят образы прошлого, минувшая война, знойная Испания, где он встретил свою истинную любовь Синтию. После ее трагической гибели он потерял интерес к жизни. В поисках острых ощущений Гарри исколесил весь мир, и вот он в африканской саванне, на пороге смерти...
Режиссер: Генри Кинг, Рой Уорд Бейкер
Сценарий: Кэйси Робинсон, Эрнест Хемингуэй
Актеры: Грегори Пек, Сьюзен Хэйуорд, Ава Гарднер, Хильдегард Кнеф, Лео Г. Кэррол, Торин Тэтчер, Ава Норринг, Хелен Стэнли, Марсель Далио, Висенте Гомес, Ричард Аллан, Аманда Амброуз, Шугарфут Андерсон, Сальвадор Багес, Чарльз Бейтс, Ольга Борже, Морис Бриер
Продолжительность: 01:53:35
Перевод: Дублированный
Субтитры: Отсутствуют

Дата мировой премьеры: 17 сентября 1952
Видеокодек: MPEG-4 AVC/H.264
Битрейт видео: ~2099 Кбит/сек
Размер кадра: 656x480
Качество видео: DVDRip
Аудиокодек: AC3
Битрейт аудио: 96 kbps

Знаете ли вы что…

«Снега Килиманджаро» — художественный фильм 1952 года, экранизация одноимённого рассказа Эрнеста Хемингуэя.
Грегори Пек и Ава Гарднер cыграют вместе в фильме 1959 года "На берегу"

Награды:

Оскар, 1953 год
Номинации (2):
Лучшая работа оператора (цветные фильмы)
Лучшая работа художника (цветные фильмы)

MediaInfo:

Общее
Уникальный идентификатор : 240021472922962380885701920785360362177 (0xB49274467097F7D99557750EF4121AC1)
Полное имя : D:\Downloads\Снега Килиманджаро.mkv
Формат : Matroska
Версия формата : Version 2
Размер файла : 1,74 Гбайт
Продолжительность : 1 ч. 53 м.
Общий поток : 2196 Кбит/сек
Дата кодирования : UTC 2012-12-19 20:43:01
Программа кодирования : mkvmerge v5.7.0 ('The Whirlwind') built on Jul 29 2012 15:12:35
Библиотека кодирования : libebml v1.2.3 + libmatroska v1.3.0
Видео
Идентификатор : 1
Формат : AVC
Формат/Информация : Advanced Video Codec
Профиль формата : [url=mailto:[email protected]][email protected][/url]
Параметр CABAC формата : Да
Параметр ReFrames формата : 8 кадров
Режим смешивания : Header stripping
Идентификатор кодека : V_MPEG4/ISO/AVC
Продолжительность : 1 ч. 53 м.
Битрейт : 2099 Кбит/сек
Ширина : 656 пикселей
Высота : 480 пикселей
Соотношение сторон : 4:3
Режим частоты кадров : Постоянный
Частота кадров : 23,976 кадра/сек
Цветовое пространство : YUV
Субдискретизация насыщенности : 4:2:0
Битовая глубина : 8 бит
Тип развёртки : Прогрессивная
Бит/(Пиксели*Кадры) : 0.278
Размер потока : 1,63 Гбайт (94%)
Заголовок : The Snows of Kilimanjaro
Библиотека кодирования : x264 core 125 r2200 999b753
Настройки программы : cabac=1 / ref=8 / deblock=1:-1:-1 / analyse=0x3:0x133 / me=umh / subme=9 / psy=1 / psy_rd=1.00:0.15 / mixed_ref=1 / me_range=16 / chroma_me=1 / trellis=2 / 8x8dct=1 / cqm=0 / deadzone=21,11 / fast_pskip=1 / chroma_qp_offset=-3 / threads=3 / lookahead_threads=1 / sliced_threads=0 / nr=0 / decimate=1 / interlaced=0 / bluray_compat=0 / constrained_intra=0 / bframes=3 / b_pyramid=2 / b_adapt=2 / b_bias=0 / direct=3 / weightb=1 / open_gop=0 / weightp=2 / keyint=240 / keyint_min=23 / scenecut=40 / intra_refresh=0 / rc_lookahead=60 / rc=2pass / mbtree=1 / bitrate=2099 / ratetol=1.0 / qcomp=0.60 / qpmin=0 / qpmax=69 / qpstep=4 / cplxblur=20.0 / qblur=0.5 / ip_ratio=1.40 / aq=1:1.00
Язык : English
Default : Да
Forced : Нет
Аудио
Идентификатор : 2
Формат : AC-3
Формат/Информация : Audio Coding 3
Расширение режима : CM (complete main)
Параметр Endianness формата : Big
Режим смешивания : Header stripping
Идентификатор кодека : A_AC3
Продолжительность : 1 ч. 53 м.
Вид битрейта : Постоянный
Битрейт : 96,0 Кбит/сек
Каналы : 1 канал
Расположение каналов : Front: C
Частота : 48,0 КГц
Битовая глубина : 16 бит
Метод сжатия : С потерями
Размер потока : 78,0 Мбайт (4%)
Заголовок : Советский дубляж
Язык : Russian
Default : Да
Forced : Нет
Скриншоты:                    Время раздачи: с 12:00 до 24:00 по Москве (выходные круглосуточно), до 10 скачавших
Вне форума [Профиль] [ЛС]
Показать сообщения:    
Ответить на тему

Текущее время: Сегодня 20:57

Часовой пояс: GMT + 3



Вы не можете начинать темы
Вы не можете отвечать на сообщения
Вы не можете редактировать свои сообщения
Вы не можете удалять свои сообщения
Вы не можете голосовать в опросах
Вы не можете прикреплять файлы к сообщениям
Вы не можете скачивать файлы