Сегодня идет свободное скачивание без начисления Download

Робинзон Крузо на Марсе / Robinson Crusoe on Mars (1964) BDRip

Ответить на тему
 
Автор
Сообщение

Omen ®

Стаж: 4 года 1 месяц

Сообщений: 194390

Торрент-статистика

Пост 09-Янв-2013 04:44

[Цитировать]

-Робинзон Крузо на Марсе / Robinson Crusoe on Mars (1964) BDRip
«A Lone U.S. Astronaut Space-Ship Wrecked on Mars!»
- Русское название: Робинзон Крузо на Марсе
Оригинальное название: Robinson Crusoe on Mars
Год выпуска: 1964
Страна: США
Жанр: Фантастика
Продолжительность: 01:49:57
Перевод: Одноголосый закадровый |RussianGuy27|
Режиссер: Байрон Хэскин
Актеры: Пол Манти, Виктор Лундин, Адам Уэст, Вули Манки
Описание фильма:
Командир Дрэйпер и полковник МакРэди находятся на орбитальном облете планеты Марс. Вследствии поломки корабля, они и обезьянка Мона были вынуждены катапультироваться на поверхность Красной планеты. Дрейперу придется вести неравную борьбу за выживание с враждебным ему миром, полагаясь только на свои силы.

Дата мировой премьеры: 24 сентября 1964
Качество видео: BDRip
Видео: 20x304 (2.37:1), 23.976 fps, XviD build 65 ~1688 kbps avg, 0.32 bit/pixel
Аудио 1: Русский 48 kHz, AC3 Dolby Digital, 1/0 (C) ch, ~96 kbps avg
Аудио 2: Английский 48 kHz, AC3 Dolby Digital, 1/0 (C) ch, ~96 kbps avg
Субтитры: Русские (отдельно), английские (отдельно)

MediaInfo

General
Complete name : D:\Загрузки\Раздачи\Robinzon.Kruzo.na.Marse.1964.BDRip\Robinzon.Kruzo.na.Marse.1964.BDRip.avi
Format : AVI
Format/Info : Audio Video Interleave
File size : 1.45 GiB
Duration : 1h 49mn
Overall bit rate : 1 894 Kbps
Movie name : Робинзон Крузо на Марсе / Robinson Crusoe on Mars (1964) BDRip
Director : Flynn82
Genre : фантастика
Writing application : VirtualDubMod 1.5.10.2 (build 2542/release)
Comment : 14.12.2012
Video
ID : 0
Format : MPEG-4 Visual
Format profile : Advanced [email protected]
Format settings, BVOP : 1
Format settings, QPel : No
Format settings, GMC : No warppoints
Format settings, Matrix : Custom
Codec ID : XVID
Codec ID/Hint : XviD
Duration : 1h 49mn
Bit rate : 1 688 Kbps
Width : 720 pixels
Height : 304 pixels
Display aspect ratio : 2.35:1
Frame rate : 23.976 fps
Color space : YUV
Chroma subsampling : 4:2:0
Bit depth : 8 bits
Scan type : Progressive
Compression mode : Lossy
Bits/(Pixel*Frame) : 0.322
Stream size : 1.30 GiB (89%)
Writing library : XviD 65
Audio #1
ID : 1
Format : AC-3
Format/Info : Audio Coding 3
Mode extension : CM (complete main)
Codec ID : 2000
Duration : 1h 49mn
Bit rate mode : Constant
Bit rate : 96.0 Kbps
Channel(s) : 1 channel
Channel positions : Front: C
Sampling rate : 48.0 KHz
Bit depth : 16 bits
Compression mode : Lossy
Stream size : 75.5 MiB (5%)
Alignment : Split accross interleaves
Interleave, duration : 42 ms (1.00 video frame)
Interleave, preload duration : 500 ms
Audio #2
ID : 2
Format : AC-3
Format/Info : Audio Coding 3
Mode extension : CM (complete main)
Codec ID : 2000
Duration : 1h 49mn
Bit rate mode : Constant
Bit rate : 96.0 Kbps
Channel(s) : 1 channel
Channel positions : Front: C
Sampling rate : 48.0 KHz
Bit depth : 16 bits
Compression mode : Lossy
Stream size : 75.5 MiB (5%)
Alignment : Split accross interleaves
Interleave, duration : 42 ms (1.00 video frame)
Interleave, preload duration : 500 ms
Скриншоты:
       
Время раздачи: С 07:00 до 22:00
Вне форума [Профиль] [ЛС]
Похожие темы
Форум Тема Автор Торрент Отв. Посл. сообщение
./templates/default/images/folder_dl.gif Строительство, Дизайн и Ремонт Робин Джеймсон - Большая энциклопедия мастера золотые руки [2016г., PDF, RUS] XP1971
2 | 0

0 | 350

5

2016-11-09 22:46
XP1971 Последнее
Показать сообщения:    
Ответить на тему

Текущее время: Сегодня 08:52

Часовой пояс: GMT + 3



Вы не можете начинать темы
Вы не можете отвечать на сообщения
Вы не можете редактировать свои сообщения
Вы не можете удалять свои сообщения
Вы не можете голосовать в опросах
Вы не можете прикреплять файлы к сообщениям
Вы не можете скачивать файлы