Сегодня идет свободное скачивание без начисления Download

Первая ночь покоя / La prima notte di quiete (1972) [H.264] DVDRip

Ответить на тему
 
Автор
Сообщение

Omen ®

Стаж: 4 года 1 месяц

Сообщений: 194359

Торрент-статистика

Пост 09-Янв-2013 04:44

[Цитировать]

-Первая ночь покоя / La prima notte di quiete (1972) [H.264] DVDRip
ПОЛНАЯ ИТАЛЬЯНСКАЯ ВЕРСИЯ
-- Русское название: Первая ночь покоя
Оригинальное название: La prima notte di quiete
Год выпуска: 1972
Страна: Италия, Франция | Adel Productions, Mondial Televisione Film, Valoria Films
Жанр: Драма--Описание фильма:
Даниеле Доминичи, слабый, безвольный, разочаровавшийся в жизни профессор филологии, который преподает в лицее в Римини, безнадежно влюбляется в молодую девушку Ванину, свою ученицу. Она тоже любит Даниеле, но предпочитает остаться с более сильным, решительным, богатым, хотя порочным и развратным мужчиной.
А Доминичи было бы суждено влачить свое жалкое существование вдали от Римини и своей возлюбленной, если бы судьба одновременно жестоко и милосердно не уготовила ему «первую ночь покоя».-К описанию фильма »
Даниэле Доминичи, слабый, безвольный, разочаровавшийся в жизни профессор филологии, который преподаёт в лицее в Римини, безнадёжно влюбляется в молодую девушку Ванину, свою ученицу. Она тоже любит Даниэле, но всё-таки не порывает личные отношения и с Джерардо Павани, более сильным, решительным, богатым, хотя порочным и развратным мужчиной. А Доминичи было бы, наверно, суждено влачить своё жалкое существование вдали от Римини и недоступной возлюбленной, если бы судьба одновременно жестоко и милосердно не уготовила ему «первую ночь покоя».
Эта умная и психологически тонкая мелодрама была встречена с некоторым удивлением из-за того, что мало кто ожидал от 46-летнего Валерио Дзурлини (прежде он снял две жёсткие, политически ангажированные ленты «Солдатские девки» / «Они шли за солдатами» и «Сидящий одесную») такой всё же интимный и деликатный фильм о мучительности и беспощадности любви. Правда, тут же вспомнили, что режиссёр ведь начинал свою карьеру в кино с лирических («Девушка с чемоданом») и семейных историй («Семейная хроника»), в которых, впрочем, не было ни грана пессимизма и безысходности.
Пожалуй, сильнее всего поразила в картине «Первая ночь покоя» актёрская работа Алена Делона, к тому моменту приучившего зрителей к своим ролям в детективах, полицейских и приключенческих лентах, где он играл мужественных, непреклонных, энергично, но с холодной решимостью действующих героев, которые не знают никаких сомнений. А растерянный, медленно спивающийся, деградирующий интеллигент — это ведь совершенно нетрадиционный, даже шокирующий образ для поклонников Делона-супермена.

1990 Сергей Кудрявцев--Режиссер: Валерио Дзурлини
Актеры: Ален Делон, Джанкарло Джаннини, Соня Петровна, Ренато Сальватори, Алида Валли, Адальберто Мария Мерли, Николетта Рицци, Сальво Рандоне, Леа Массари, Фабрицио Морони ...

Продолжительность: 02:07:04
Перевод: Профессиональный двуголосый закадровый (ОРТ)
Вид субтитров: Вшитые (английские, итальянские)

Дата мировой премьеры: 23 октября 1972
Дата выхода DVD релиза: 30 августа 2007, «Cinema Prestige»
Видеокодек: MPEG-4 AVC/H.264
Битрейт видео: ~2067 Кбит/сек
Размер кадра: [email protected] (1,85:1)
Качество видео: DVDRip
Аудио #1: AC-3, 48,0 КГц, 192 Кбит/сек, 1 канал (Front: C), русский
Аудио #2: AC-3, 48,0 КГц, 192 Кбит/сек, 1 канал (Front: C), итальянский

MediaInfo:

Код:
Общее
Уникальный идентификатор                 : 187897873892531400091445303861398304376 (0x8D5BD06E351BAB89A31CE834994D7678)
Полное имя                               : :\\La.Prima.notte.di.quiete.1972.dvdrip-avc.mkv
Формат                                   : Matroska
Версия формата                           : Version 2
Размер файла                             : 2,18 Гбайт
Продолжительность                        : 2 ч. 7 м.
Общий поток                              : 2453 Кбит/сек
Название фильма                          : Первая ночь покоя / La Prima notte di quiete (1972) // rip by egiko
Кодирование произвёл                     : egiko [source: DVD9]
Дата кодирования                         : UTC 2012-12-22 08:51:09
Программа кодирования                    : mkvmerge v5.8.0 ('No Sleep / Pillow') built on Sep  2 2012 15:37:04
Библиотека кодирования                   : libebml v1.2.3 + libmatroska v1.3.0
DATE                                     : 1972
DIRECTOR                                 : Valerio Zurlini
COMMENT                                  : [итальянская версия]
Attachment                               : Yes
Видео
Идентификатор                            : 1
Формат                                   : AVC
Формат/Информация                        : Advanced Video Codec
Профиль формата                          : [url=mailto:[email protected]][email protected][/url]
Параметр CABAC формата                   : Да
Параметр ReFrames формата                : 13 кадров
Идентификатор кодека                     : V_MPEG4/ISO/AVC
Продолжительность                        : 2 ч. 7 м.
Битрейт                                  : 2067 Кбит/сек
Ширина                                   : 688 пикселей
Высота                                   : 544 пикселя
Соотношение сторон                       : 1,85:1
Соотношение сторон в оригинале           : 1,85:1
Частота кадров                           : 25,000 кадров/сек
Цветовое пространство                    : YUV
Субдискретизация насыщенности            : 4:2:0
Битовая глубина                          : 8 бит
Тип развёртки                            : Прогрессивная
Бит/(Пиксели*Кадры)                      : 0.221
Размер потока                            : 1,79 Гбайт (82%)
Заголовок                                : Первая ночь покоя / La Prima notte di quiete
Библиотека кодирования                   : x264 core 128 r2216kMod 198a7ea
Настройки программы                      : cabac=1 / ref=13 / deblock=1:-1:-1 / analyse=0x3:0x133 / me=umh / subme=10 / psy=1 / fade_compensate=0.00 / psy_rd=1.00:0.15 / mixed_ref=1 / me_range=24 / chroma_me=1 / trellis=2 / 8x8dct=1 / cqm=0 / deadzone=21,11 / fast_pskip=1 / chroma_qp_offset=-3 / threads=6 / lookahead_threads=1 / sliced_threads=0 / nr=0 / decimate=1 / interlaced=0 / bluray_compat=0 / constrained_intra=0 / bframes=8 / b_pyramid=2 / b_adapt=2 / b_bias=0 / direct=3 / weightb=1 / open_gop=0 / weightp=2 / keyint=250 / keyint_min=25 / scenecut=40 / intra_refresh=0 / rc=2pass / mbtree=0 / bitrate=2067 / ratetol=1.0 / qcomp=0.60 / qpmin=0 / qpmax=69 / qpstep=4 / cplxblur=20.0 / qblur=0.5 / ip_ratio=1.40 / pb_ratio=1.30 / aq=1:1.00
Язык                                     : French
Default                                  : Да
Forced                                   : Нет
Аудио #1
Идентификатор                            : 2
Формат                                   : AC-3
Формат/Информация                        : Audio Coding 3
Расширение режима                        : CM (complete main)
Параметр Endianness формата              : Big
Идентификатор кодека                     : A_AC3
Продолжительность                        : 2 ч. 7 м.
Вид битрейта                             : Постоянный
Битрейт                                  : 192 Кбит/сек
Каналы                                   : 1 канал
Расположение каналов                     : Front: C
Частота                                  : 48,0 КГц
Битовая глубина                          : 16 бит
Метод сжатия                             : С потерями
Размер потока                            : 175 Мбайт (8%)
Заголовок                                : Двухголосый закадровый / ОРТ
Язык                                     : Russian
Default                                  : Да
Forced                                   : Нет
Аудио #2
Идентификатор                            : 3
Формат                                   : AC-3
Формат/Информация                        : Audio Coding 3
Расширение режима                        : CM (complete main)
Параметр Endianness формата              : Big
Идентификатор кодека                     : A_AC3
Продолжительность                        : 2 ч. 7 м.
Вид битрейта                             : Постоянный
Битрейт                                  : 192 Кбит/сек
Каналы                                   : 1 канал
Расположение каналов                     : Front: C
Частота                                  : 48,0 КГц
Битовая глубина                          : 16 бит
Метод сжатия                             : С потерями
Размер потока                            : 175 Мбайт (8%)
Заголовок                                : Оригинал
Язык                                     : Italian
Default                                  : Нет
Forced                                   : Нет
Текст #1
Идентификатор                            : 4
Формат                                   : UTF-8
Идентификатор кодека                     : S_TEXT/UTF8
Идентификатор кодека/Информация          : UTF-8 Plain Text
Язык                                     : English
Default                                  : Да
Forced                                   : Нет
Текст #2
Идентификатор                            : 5
Формат                                   : UTF-8
Идентификатор кодека                     : S_TEXT/UTF8
Идентификатор кодека/Информация          : UTF-8 Plain Text
Язык                                     : Italian
Default                                  : Нет
Forced                                   : Нет
Скриншоты:                Время раздачи: 24/7 до первых 3-х скачавших, далее по возможности
Вне форума [Профиль] [ЛС]
Показать сообщения:    
Ответить на тему

Текущее время: Сегодня 01:14

Часовой пояс: GMT + 3



Вы не можете начинать темы
Вы не можете отвечать на сообщения
Вы не можете редактировать свои сообщения
Вы не можете удалять свои сообщения
Вы не можете голосовать в опросах
Вы не можете прикреплять файлы к сообщениям
Вы не можете скачивать файлы