Сегодня идет свободное скачивание без начисления Download

Стивен Кинг. Коллекция фильмов. Часть 3 из 5 / (1991-1995) DVDRip

Ответить на тему
 
Автор
Сообщение

Omen ®

Стаж: 4 года 1 месяц

Сообщений: 194394

Торрент-статистика

Пост 09-Янв-2013 04:44

[Цитировать]

-Стивен Кинг. Коллекция фильмов. Часть 3 из 5 / (1991-1995) DVDRip- Русское название: Стивен Кинг.
Оригинальное название: Коллекция фильмов.
Год выпуска: 1991-1995
Жанр: Ужасы, Фэнтези, Триллер
Фильмы отсортированы по году выхода на экран. Часть 3 из 5

Стивен Кинг - Золотые годы/Golden Years. 1991 год

Русское название: Золотые годы
Оригинальное название: Golden Years
Год выпуска: 1991
Жанр: Ужасы, Фэнтези, Триллер
Описание фильма: После аварии в сверхсекретном научном военном центре начато расследование обстоятельств взрыва. А работала лаборатория, где был взрыв, над процессом регенерации. Это открытие должно произвести революцию в медицине - оторвало человеку ногу, а через несколько часов у него выросла новая... Выяснилось, что при взрыве, те, кто попал под воздействие таинственного облучения, стали молодеть. Но вдруг всех, кто имел отношение к этой аварии, стали убивать...
Режиссер: Аллен Култер/Allen Kulter, Майкл Горник/Maikl Gornik
Актеры: Кит Шарабайка/Keith Szarbajka, Фелисити Хаффмэн/Felicity Huffman, Эд Лоутер/Ed Lauter, Р.Д.Колл/R.D.Call, Билл Рэймонд/Bill Raymond, Фрэнсис Стернхэйген/Frances Sternhagen
Продолжительность: 03:56:17
Перевод: Двухголосный закадровый
Видеокодек: DivX
Битрейт видео: 1106 Кбит/сек
Размер кадра: 576х432
Качество видео: DVDrip
Аудиокодек: MP3
Битрейт аудио: 128 Кбит/сек

Media info:

Формат : AVI
Формат/Информация : Audio Video Interleave
Профиль формата : OpenDML
Размер файла : 2,06 Гбайт
Продолжительность : 3 ч. 56 м.
Общий поток : 1247 Кбит/сек
Программа кодирования : VirtualDubMod 1.5.10.1 (build 2439/release)
Библиотека кодирования : VirtualDubMod build 2439/release
Видео
Идентификатор : 0
Формат : MPEG-4 Visual
Параметр BVOP формата : 1
Параметр QPel формата : Нет
Параметр GMC формата : Без точки перехода
Параметр матрицы формата : Default (H.263)
Режим смешивания : Сжатый битовый поток
Идентификатор кодека : DX50
Идентификатор кодека/Подсказка : DivX 5
Продолжительность : 3 ч. 56 м.
Битрейт : 1106 Кбит/сек
Ширина : 576 пикселей
Высота : 432 пикселя
Соотношение сторон : 4:3
Частота кадров : 23,976 кадра/сек
Цветовое пространство : YUV
Субдискретизация насыщенности : 4:2:0
Битовая глубина : 8 бит
Тип развёртки : Прогрессивная
Метод сжатия : С потерями
Бит/(Пиксели*Кадры) : 0.185
Размер потока : 1,82 Гбайт (89%)
Библиотека кодирования : DivX 5.0.5 (UTC 2003-04-24)
Аудио
Идентификатор : 1
Формат : MPEG Audio
Версия формата : Version 1
Профиль формата : Layer 3
Режим : Joint stereo
Расширение режима : MS Stereo
Идентификатор кодека : 55
Идентификатор кодека/Подсказка : MP3
Продолжительность : 3 ч. 56 м.
Вид битрейта : Постоянный
Битрейт : 128 Кбит/сек
Каналы : 2 канала
Частота : 44,1 КГц
Метод сжатия : С потерями
Задержка видео : 16 мс.
Размер потока : 216 Мбайт (10%)
Выравнивание : Разделение по промежуткам
Продолжительность промежутка : 42 мс. (1,00 видеокадр)
Время предзагрузки промежутка : 500 мс.
Скриншоты:

Время раздачи: с 8:00 до 24:00

Стивен Кинг - Иногда они возвращаются.../Sometimes They Come Back... 1991 год

Русское название: Иногда они возвращаются...
Оригинальное название: Sometimes They Come Back...
Год выпуска: 1991
Жанр: Ужасы, Фэнтези, Триллер
Описание фильма: Школьный учитель приезжает в свой родной город после 30-летнего отсутствия. Когда-то здесь произошла страшная трагедия: шайка головорезов из числа его учеников убила его брата. А затем и сами убийцы погибли во время крушения поезда. Это случилось давно. Но страшные призраки прошлого один за другим начинают вновь возвращаться…
Режиссер: Том МакЛуглин /Tom McLoughlin/
Актеры: Тим Матсон /Tim Matheson/, Брук Адамс /Brooke Adams/, Роберт Раслер /Robert Rusler/, Крис Диметрал /Chris Demetral/, Роберт Хай Горман /Robert Hy Gorman/
Продолжительность: 01:37:00
Перевод: Профессиональный многоголосый
Видеокодек: DivX
Битрейт видео: 860 Кбит/сек
Размер кадра: 576х416
Качество видео: DVDrip
Аудиокодек: AC-3
Битрейт аудио: 160 Кбит/сек

Media info:

Формат : AVI
Формат/Информация : Audio Video Interleave
Размер файла : 721 Мбайт
Продолжительность : 1 ч. 37 м.
Общий поток : 1029 Кбит/сек
Программа кодирования : Nandub v1.0rc2
Библиотека кодирования : VirtualDub build 28292/release
Видео
Идентификатор : 0
Формат : MPEG-4 Visual
Параметр BVOP формата : 1
Параметр QPel формата : Нет
Параметр GMC формата : Без точки перехода
Параметр матрицы формата : Default (H.263)
Режим смешивания : Сжатый битовый поток
Идентификатор кодека : DX50
Идентификатор кодека/Подсказка : DivX 5
Продолжительность : 1 ч. 37 м.
Битрейт : 860 Кбит/сек
Ширина : 576 пикселей
Высота : 416 пикселей
Соотношение сторон : 1,385
Частота кадров : 23,976 кадра/сек
Цветовое пространство : YUV
Субдискретизация насыщенности : 4:2:0
Битовая глубина : 8 бит
Тип развёртки : Прогрессивная
Метод сжатия : С потерями
Бит/(Пиксели*Кадры) : 0.150
Размер потока : 603 Мбайт (84%)
Библиотека кодирования : DivX 6.0.0 (UTC 2005-06-15)
Аудио
Идентификатор : 1
Формат : AC-3
Формат/Информация : Audio Coding 3
Расширение режима : CM (complete main)
Параметр Endianness формата : Big
Идентификатор кодека : 2000
Продолжительность : 1 ч. 37 м.
Вид битрейта : Постоянный
Битрейт : 160 Кбит/сек
Каналы : 2 канала
Расположение каналов : Front: L R
Частота : 44,1 КГц
Битовая глубина : 16 бит
Метод сжатия : С потерями
Размер потока : 112 Мбайт (16%)
Выравнивание : Соединение по промежуткам
Продолжительность промежутка : 42 мс. (1,00 видеокадр)
Время предзагрузки промежутка : 522 мс.
Скриншоты:

Время раздачи: с 8:00 до 24:00

Стивен Кинг - Кладбище домашних животных 2/Pet Sematary 2. 1992 год

Русское название: Кладбище домашних животных 2
Оригинальное название: Pet Sematary 2
Год выпуска: 1992
Жанр: Ужасы, Фэнтези, Триллер
Описание фильма: После смерти жены ветеринар Чейз Мэтьюз и его тринадцатилетний сын Джефф решают начать новую жизнь. Отец и сын переезжают в захолустный городок Ладлоу. Здесь Джефф знакомится с подростком по имени Дрю. Как выяснилось, новому приятелю Джеффа живется несладко. Над Дрю постоянно издевается его отчим - местный шериф Гас Гилберт. Однажды, когда жестокость отчима перешла все границы, он хладнокровно пристрелил любимую собаку Дрю. Теперь мальчикам предстоит похоронить пса. И они решают сделать это на старом индейском кладбище, про которое ходят жуткие легенды. Рассказывают, что если закопать на нём мертвеца, то через некоторое время он обязательно вернётся...
Режиссер: Мэри Ламберт /Mary Lambert/
Актеры: Клэнси Браун /Clancy Brown/, Джэред Раштон /Jared Rushton/, Джейсон МакГуайр /Jason McGuire/, Энтони Эдвардс /Anthony Edwards/, Лиза Уолц /Lisa Waltz/
Продолжительность: 01:40:32
Перевод: Профессиональный многоголосый
Видеокодек: DivX
Битрейт видео: 847 Кбит/сек
Размер кадра: 512х277
Качество видео: DVDrip
Аудиокодек: MP3
Битрейт аудио: 96,0 Кбит/сек

Media info:

Формат : AVI
Формат/Информация : Audio Video Interleave
Размер файла : 684 Мбайт
Продолжительность : 1 ч. 40 м.
Общий поток : 953 Кбит/сек
Библиотека кодирования : VirtualDub build 12903/release
Видео
Идентификатор : 0
Формат : MPEG-4 Visual
Идентификатор кодека : DIV3
Идентификатор кодека/Подсказка : DivX 3 Low
Продолжительность : 1 ч. 40 м.
Битрейт : 847 Кбит/сек
Ширина : 512 пикселей
Высота : 277 пикселей
Соотношение сторон : 1,85:1
Частота кадров : 23,976 кадра/сек
Цветовое пространство : YUV
Субдискретизация насыщенности : 4:2:0
Битовая глубина : 8 бит
Метод сжатия : С потерями
Бит/(Пиксели*Кадры) : 0.249
Размер потока : 609 Мбайт (89%)
Аудио
Идентификатор : 1
Формат : MPEG Audio
Версия формата : Version 1
Профиль формата : Layer 3
Режим : Joint stereo
Расширение режима : Intensity Stereo
Идентификатор кодека : 55
Идентификатор кодека/Подсказка : MP3
Продолжительность : 1 ч. 40 м.
Вид битрейта : Постоянный
Битрейт : 96,0 Кбит/сек
Каналы : 2 канала
Частота : 48,0 КГц
Метод сжатия : С потерями
Размер потока : 69,0 Мбайт (10%)
Выравнивание : Разделение по промежуткам
Продолжительность промежутка : 42 мс. (1,00 видеокадр)
Время предзагрузки промежутка : 500 мс.
Скриншоты:

Время раздачи: с 8:00 до 24:00

Стивен Кинг - Газонокосильщик/The Lawnmower Man. 1992 год

Русское название: Газонокосильщик
Оригинальное название: The Lawnmower Man
Год выпуска: 1992
Жанр: Ужасы, Фэнтези, Триллер
Описание фильма: Молодой талантливый ученый Лоуренс Анджело ставит над умственно неполноценным косильщиком лужаек Джоубом эксперименты с использованием высоких компьютерных технологий в комбинации с наркотиками. Анджело внедряет Джоуба в виртуальную реальность - трехмерный компьютерный мир. Ученому удается развить умственные способности вчерашнего недоумка до супергения. Но в ход экспериментов тайно вмешиваются военные, и испытуемый превращается в сверхинтеллектуального монстра - психопата в человеческом облике, у которого возникают претензии на мировое господство...
Режиссер: Бретт Леонард /Brett Leonard/
Актеры: Джефф Фэйи /Jeff Fahey/, Пирс Броснан /Pierce Brosnan/, Дженни Райт /Jenny Wright/, Марк Бринглсон /Mark Bringelson/, Джеффри Льюис /Geoffrey Lewis/
Продолжительность: 02:20:14
Перевод: Профессиональный многоголосый
Видеокодек: XviD
Битрейт видео: 935 Кбит/сек
Размер кадра: 608х336
Качество видео: DVDrip
Аудиокодек: AC-3
Битрейт аудио: 448 Кбит/сек

Media info:

Формат : AVI
Формат/Информация : Audio Video Interleave
Размер файла : 1,37 Гбайт
Продолжительность : 2 ч. 20 м.
Общий поток : 1390 Кбит/сек
Программа кодирования : VirtualDubMod 1.5.4.1 (build 2178/release)
Библиотека кодирования : VirtualDubMod build 2178/release
Видео
Идентификатор : 0
Формат : MPEG-4 Visual
Профиль формата : [email protected]
Параметр BVOP формата : 1
Параметр QPel формата : Нет
Параметр GMC формата : Без точки перехода
Параметр матрицы формата : Выборочная
Идентификатор кодека : XVID
Идентификатор кодека/Подсказка : XviD
Продолжительность : 2 ч. 20 м.
Битрейт : 935 Кбит/сек
Ширина : 608 пикселей
Высота : 336 пикселей
Соотношение сторон : 16:9
Частота кадров : 25,000 кадров/сек
Цветовое пространство : YUV
Субдискретизация насыщенности : 4:2:0
Битовая глубина : 8 бит
Тип развёртки : Прогрессивная
Метод сжатия : С потерями
Бит/(Пиксели*Кадры) : 0.183
Размер потока : 942 Мбайт (67%)
Библиотека кодирования : XviD 1.0.3 (UTC 2004-12-20)
Аудио
Идентификатор : 1
Формат : AC-3
Формат/Информация : Audio Coding 3
Расширение режима : CM (complete main)
Параметр Endianness формата : Big
Идентификатор кодека : 2000
Продолжительность : 2 ч. 20 м.
Вид битрейта : Постоянный
Битрейт : 448 Кбит/сек
Каналы : 6 каналов
Расположение каналов : Front: L C R, Side: L R, LFE
Частота : 48,0 КГц
Битовая глубина : 16 бит
Метод сжатия : С потерями
Размер потока : 451 Мбайт (32%)
Выравнивание : Разделение по промежуткам
Продолжительность промежутка : 96 мс. (2,40 видеокадра)
Время предзагрузки промежутка : 96 мс.
Язык : Russian
Скриншоты:

Время раздачи: с 8:00 до 24:00

Стивен Кинг - Лунатики/Sleepwalkers. 1992 год

Русское название: Лунатики
Оригинальное название: Sleepwalkers
Год выпуска: 1992
Жанр: Ужасы, Фэнтези, Триллер
Описание фильма: Чарльз Брэйди и его мать - таинственное порождение темных сил: они - оборотни. Их любимая добыча - молодые девственницы, дарующие им жизненную энергию. Но выбранная ими новая жертва оказывается сильнее и изобретательнее своих преследователей. Школьница Таня Робертсон находит оружие против кровавой семейки. Больше всего на свете они боятся кошачих когтей...
Режиссер: Мик Гаррис /Mick Garris/
Актеры: Брайан Краузе /Brian Krause/, Мэдхен Амик /Madchen Amick/, Элис Крайдж /Alice Krige/, Джим Хэйни /Jim Haynie/, Синди Пикетт /Cindy Pickett/
Продолжительность: 01:25:00
Перевод: Профессиональный многоголосый
Видеокодек: XviD
Битрейт видео: 1837 Кбит/сек
Размер кадра: 704х384
Качество видео: DVDrip
Аудио #1
Аудиокодек: AC-3
Битрейт аудио: 192 Кбит/сек
Аудио #2
Аудиокодек: AC-3
Битрейт аудио: 192 Кбит/сек
Аудио #3
Аудиокодек: AC-3
Битрейт аудио: 192 Кбит/сек

Media info:

Формат : AVI
Формат/Информация : Audio Video Interleave
Размер файла : 1,45 Гбайт
Продолжительность : 1 ч. 25 м.
Общий поток : 2432 Кбит/сек
Название фильма : Лунатики /Sleepwalkers (1992)
Правообладатель : HeDgEhOt® & FenixClub
Видео
Идентификатор : 0
Формат : MPEG-4 Visual
Профиль формата : Advanced [email protected]
Параметр BVOP формата : 1
Параметр QPel формата : Нет
Параметр GMC формата : Без точки перехода
Параметр матрицы формата : Выборочная
Идентификатор кодека : XVID
Идентификатор кодека/Подсказка : XviD
Продолжительность : 1 ч. 25 м.
Битрейт : 1837 Кбит/сек
Ширина : 704 пикселя
Высота : 384 пикселя
Соотношение сторон : 1,85:1
Частота кадров : 25,000 кадров/сек
Цветовое пространство : YUV
Субдискретизация насыщенности : 4:2:0
Битовая глубина : 8 бит
Тип развёртки : Прогрессивная
Метод сжатия : С потерями
Бит/(Пиксели*Кадры) : 0.272
Размер потока : 1,10 Гбайт (76%)
Библиотека кодирования : XviD 1.1.2 (UTC 2006-11-01)
Аудио #1
Идентификатор : 1
Формат : AC-3
Формат/Информация : Audio Coding 3
Расширение режима : CM (complete main)
Параметр Endianness формата : Big
Идентификатор кодека : 2000
Продолжительность : 1 ч. 25 м.
Вид битрейта : Постоянный
Битрейт : 192 Кбит/сек
Каналы : 2 канала
Расположение каналов : Front: L R
Частота : 48,0 КГц
Битовая глубина : 16 бит
Метод сжатия : С потерями
Размер потока : 118 Мбайт (8%)
Выравнивание : Разделение по промежуткам
Продолжительность промежутка : 40 мс. (1,00 видеокадр)
Время предзагрузки промежутка : 500 мс.
Язык : Русский / English
Аудио #2
Идентификатор : 2
Формат : AC-3
Формат/Информация : Audio Coding 3
Расширение режима : CM (complete main)
Параметр Endianness формата : Big
Идентификатор кодека : 2000
Продолжительность : 1 ч. 25 м.
Вид битрейта : Постоянный
Битрейт : 192 Кбит/сек
Каналы : 2 канала
Расположение каналов : Front: L R
Частота : 48,0 КГц
Битовая глубина : 16 бит
Метод сжатия : С потерями
Размер потока : 118 Мбайт (8%)
Выравнивание : Разделение по промежуткам
Продолжительность промежутка : 40 мс. (1,00 видеокадр)
Время предзагрузки промежутка : 500 мс.
Аудио #3
Идентификатор : 3
Формат : AC-3
Формат/Информация : Audio Coding 3
Профиль формата : Dolby Digital
Расширение режима : CM (complete main)
Параметр Endianness формата : Big
Идентификатор кодека : 2000
Продолжительность : 1 ч. 25 м.
Вид битрейта : Постоянный
Битрейт : 192 Кбит/сек
Каналы : 2 канала
Расположение каналов : Front: L R
Частота : 48,0 КГц
Битовая глубина : 16 бит
Метод сжатия : С потерями
Размер потока : 118 Мбайт (8%)
Выравнивание : Разделение по промежуткам
Продолжительность промежутка : 40 мс. (1,00 видеокадр)
Время предзагрузки промежутка : 500 мс.
Скриншоты:

Время раздачи: с 8:00 до 24:00

Стивен Кинг - Томминокеры/The Tommyknockers. 1993 год

Русское название: Томминокеры
Оригинальное название: The Tommyknockers
Год выпуска: 1993
Жанр: Ужасы, Фэнтези, Триллер
Описание фильма: Эта история происходит в одном из маленьких городков Новой Англии. Однажды писательница Бобби Андерсон, гуляя по лесу, наткнулась на что - то странное, присыпанное землей... Так началось превращение мирного живописного городка в бесприютное и пугающее место, где никто не может чувствовать себя в безопасности...
Режиссер: Джон Пауэр /John Power/
Актеры: Джимми Смитс /Jimmy Smits/, Мардж Хелгенбергер /Marg Helgenberger/, Джон Эштон /John Ashton/, Эллис Бисли /Allyce Beasley/, Роберт Кэррэдин /Robert Carradine/
Продолжительность: 02:59:36
Перевод: Профессиональный многоголосый
CD1
Видеокодек: DivX
Битрейт видео: 981 Кбит/сек
Размер кадра: 640х484
Качество видео: DVDrip
Аудиокодек: MP3
Битрейт аудио: 102 Кбит/сек
CD2
Видеокодек: XviD
Битрейт видео: 869 Кбит/сек
Размер кадра: 640х480
Качество видео: DVDrip
Аудиокодек: MP3
Битрейт аудио: 192 Кбит/сек

Media info: CD1

Формат : AVI
Формат/Информация : Audio Video Interleave
Размер файла : 696 Мбайт
Продолжительность : 1 ч. 28 м.
Режим общего битрейта : Переменный
Общий поток : 1096 Кбит/сек
Программа кодирования : VirtualDubMod 1.4.13
Библиотека кодирования : VirtualDub build 14328/release
Видео
Идентификатор : 0
Формат : MPEG-4 Visual
Параметр BVOP формата : Да
Параметр QPel формата : Нет
Параметр GMC формата : Без точки перехода
Параметр матрицы формата : Default (H.263)
Идентификатор кодека : DX50
Идентификатор кодека/Подсказка : DivX 5
Продолжительность : 1 ч. 28 м.
Битрейт : 981 Кбит/сек
Ширина : 640 пикселей
Высота : 464 пикселя
Соотношение сторон : 1,379
Частота кадров : 23,976 кадра/сек
Цветовое пространство : YUV
Субдискретизация насыщенности : 4:2:0
Битовая глубина : 8 бит
Тип развёртки : Прогрессивная
Метод сжатия : С потерями
Бит/(Пиксели*Кадры) : 0.138
Размер потока : 624 Мбайт (90%)
Библиотека кодирования : DivX 5.0.2 (UTC 2002-05-16)
Аудио
Идентификатор : 1
Формат : MPEG Audio
Версия формата : Version 1
Профиль формата : Layer 3
Идентификатор кодека : 55
Идентификатор кодека/Подсказка : MP3
Продолжительность : 1 ч. 28 м.
Вид битрейта : Переменный
Битрейт : 102 Кбит/сек
Каналы : 2 канала
Частота : 44,1 КГц
Метод сжатия : С потерями
Размер потока : 65,1 Мбайт (9%)
Выравнивание : Соединение по промежуткам
Продолжительность промежутка : 26 мс. (0,63 видеокадр)
Время предзагрузки промежутка : 501 мс.
Библиотека кодирования : LAME3.87 (beta 1, No

Media info: CD2

Формат : AVI
Формат/Информация : Audio Video Interleave
Размер файла : 699 Мбайт
Продолжительность : 1 ч. 31 м.
Общий поток : 1073 Кбит/сек
Программа кодирования : VirtualDubMod 1.4.13
Библиотека кодирования : VirtualDub build 14328/release
Видео
Идентификатор : 0
Формат : MPEG-4 Visual
Параметр BVOP формата : 1
Параметр QPel формата : Нет
Параметр GMC формата : 2 точки перехода
Параметр матрицы формата : Default (H.263)
Режим смешивания : Сжатый битовый поток
Идентификатор кодека : DX50
Идентификатор кодека/Подсказка : DivX 5
Продолжительность : 1 ч. 31 м.
Битрейт : 869 Кбит/сек
Ширина : 640 пикселей
Высота : 480 пикселей
Соотношение сторон : 4:3
Частота кадров : 29,970 кадров/сек
Цветовое пространство : YUV
Субдискретизация насыщенности : 4:2:0
Битовая глубина : 8 бит
Тип развёртки : Прогрессивная
Метод сжатия : С потерями
Бит/(Пиксели*Кадры) : 0.094
Размер потока : 567 Мбайт (81%)
Библиотека кодирования : DivX 5.0.2 (UTC 2002-05-16)
Аудио
Идентификатор : 1
Формат : MPEG Audio
Версия формата : Version 1
Профиль формата : Layer 3
Идентификатор кодека : 55
Идентификатор кодека/Подсказка : MP3
Продолжительность : 1 ч. 31 м.
Вид битрейта : Постоянный
Битрейт : 192 Кбит/сек
Каналы : 2 канала
Частота : 44,1 КГц
Метод сжатия : С потерями
Размер потока : 125 Мбайт (18%)
Выравнивание : Разделение по промежуткам
Продолжительность промежутка : 33 мс. (1,00 видеокадр)
Время предзагрузки промежутка : 500 мс.
Библиотека кодирования : LAME3.87 (beta 1, No
Скриншоты:

Время раздачи: с 8:00 до 24:00

Стивен Кинг - Темная половина/The Dark Half. 1993 год

Русское название: Темная половина
Оригинальное название: The Dark Half
Год выпуска: 1993
Жанр: Ужасы, Фэнтези, Триллер
Описание фильма: Тэд Бомон - удачливый писатель. На его бестселлерах стоит имя Джорджа Старка, но это не псевдоним, это - его таинственный двойник, который с детства преследует свою реальную половину из темных глубин подсознания. Именно он на протяжении уже стольких лет водит рукой Тэда вопреки его воле. Желая избавиться от плода собственного воображения, литератор устраивает похороны своего невидимого отражения. Но никто не в силах избавиться от собственной тени. Она оживает и начинает мстить...
Режиссер: Джордж А. Ромеро /George A. Romero/
Актеры: Тимоти Хаттон /Timothy Hutton/, Эми Мэдигэн /Amy Madigan/, Майкл Рукер /Michael Rooker/, Джули Хэррис /Julie Harris/, Роберт Джой /Robert Joy/, Челси Филд /
Продолжительность: 02:00:34
Перевод: Профессиональный многоголосый
CD1
Видеокодек: DivX
Битрейт видео: 1423 Кбит/сек
Размер кадра: 544х400
Качество видео: DVDrip
Аудиокодек: AC-3
Битрейт аудио: 192 Кбит/сек
CD2
Видеокодек: DivX 5
Битрейт видео: 1404 Кбит/сек
Размер кадра: 544х400
Качество видео: DVDrip
Аудиокодек: AC-3
Битрейт аудио: 192 Кбит/сек

Media info:CD1

Формат : AVI
Формат/Информация : Audio Video Interleave
Размер файла : 699 Мбайт
Продолжительность : 1 ч. 0 м.
Общий поток : 1625 Кбит/сек
Программа кодирования : VirtualDubMod 1.5.1.1a (build 1639/release)
Библиотека кодирования : VirtualDubMod build 1639/release
Видео
Идентификатор : 0
Формат : MPEG-4 Visual
Параметр BVOP формата : 1
Параметр QPel формата : Нет
Параметр GMC формата : Без точки перехода
Параметр матрицы формата : Default (H.263)
Режим смешивания : Сжатый битовый поток
Идентификатор кодека : DX50
Идентификатор кодека/Подсказка : DivX 5
Продолжительность : 1 ч. 0 м.
Битрейт : 1423 Кбит/сек
Ширина : 544 пикселя
Высота : 400 пикселей
Соотношение сторон : 4:3
Частота кадров : 23,976 кадра/сек
Цветовое пространство : YUV
Субдискретизация насыщенности : 4:2:0
Битовая глубина : 8 бит
Тип развёртки : Прогрессивная
Метод сжатия : С потерями
Бит/(Пиксели*Кадры) : 0.273
Размер потока : 613 Мбайт (88%)
Библиотека кодирования : DivX 5.0.5 (UTC 2003-04-24)
Аудио
Идентификатор : 1
Формат : AC-3
Формат/Информация : Audio Coding 3
Расширение режима : CM (complete main)
Параметр Endianness формата : Big
Идентификатор кодека : 2000
Продолжительность : 1 ч. 0 м.
Вид битрейта : Постоянный
Битрейт : 192 Кбит/сек
Каналы : 2 канала
Расположение каналов : Front: L R
Частота : 48,0 КГц
Битовая глубина : 16 бит
Метод сжатия : С потерями
Задержка видео : 30 мс.
Размер потока : 82,7 Мбайт (12%)
Выравнивание : Разделение по промежуткам
Продолжительность промежутка : 42 мс. (1,00 видеокадр)
Время предзагрузки промежутка : 500 мс.

Media info:CD2

Формат : AVI
Формат/Информация : Audio Video Interleave
Размер файла : 700 Мбайт
Продолжительность : 1 ч. 0 м.
Общий поток : 1605 Кбит/сек
Программа кодирования : VirtualDubMod 1.5.1.1a (build 1639/release)
Библиотека кодирования : VirtualDubMod build 1639/release
Видео
Идентификатор : 0
Формат : MPEG-4 Visual
Параметр BVOP формата : 1
Параметр QPel формата : Нет
Параметр GMC формата : Без точки перехода
Параметр матрицы формата : Default (H.263)
Режим смешивания : Сжатый битовый поток
Идентификатор кодека : DX50
Идентификатор кодека/Подсказка : DivX 5
Продолжительность : 1 ч. 0 м.
Битрейт : 1404 Кбит/сек
Ширина : 544 пикселя
Высота : 400 пикселей
Соотношение сторон : 4:3
Частота кадров : 23,976 кадра/сек
Цветовое пространство : YUV
Субдискретизация насыщенности : 4:2:0
Битовая глубина : 8 бит
Тип развёртки : Прогрессивная
Метод сжатия : С потерями
Бит/(Пиксели*Кадры) : 0.269
Размер потока : 612 Мбайт (87%)
Библиотека кодирования : DivX 5.0.5 (UTC 2003-04-24)
Аудио
Идентификатор : 1
Формат : AC-3
Формат/Информация : Audio Coding 3
Расширение режима : CM (complete main)
Параметр Endianness формата : Big
Идентификатор кодека : 2000
Продолжительность : 1 ч. 0 м.
Вид битрейта : Постоянный
Битрейт : 192 Кбит/сек
Каналы : 2 канала
Расположение каналов : Front: L R
Частота : 48,0 КГц
Битовая глубина : 16 бит
Метод сжатия : С потерями
Задержка видео : 21 мс.
Размер потока : 83,7 Мбайт (12%)
Выравнивание : Разделение по промежуткам
Продолжительность промежутка : 42 мс. (1,00 видеокадр)
Время предзагрузки промежутка : 500 мс.
Скриншоты:

Время раздачи: с 8:00 до 24:00

Стивен Кинг - Необходимые вещи/Needful Things. 1993 год

Русское название: Необходимые вещи
Оригинальное название: Needful Things
Год выпуска: 1993
Жанр: Ужасы, Фэнтези, Триллер
Описание фильма: В тихом городке Касл Рок открылся необычный магазин под названием "Нужные вещи". В нем можно за полцены купить все, что душе угодно. За вторую половину цены хозяин магазина требует, чтобы покупатель устроил какую-нибудь пакость ближнему своему. В результате городок превращается в преисподнюю. Убийства, драки, взрывы, сведение счетов - сам дьявол манипулирует горожанами. Если бы не шериф - единственный человек в Касл Рок, который не захотел стать клиентом этого проклятого магазина, все население городка переселилось бы прямо в ад…
Режиссер: Фрэйзер С. Хестон /Fraser Clarke Heston/
Актеры: Эд Хэррис /Ed Harris/, Макс фон Зюдов /Max von Sydow/, Бонни Беделиа /Bonnie Bedelia/, Дж. Т. Уолш /J. T. Walsh/, Аманда Пламмер /Amanda Plummer/
Продолжительность: 01:55:03
Перевод: Профессиональный многоголосый
Видеокодек: DivX
Битрейт видео: 1222 Кбит/сек
Размер кадра: 512х384
Качество видео: DVDrip
Аудиокодек: AC-3
Битрейт аудио: 384 Кбит/сек

Media info:CD1

Формат : AVI
Формат/Информация : Audio Video Interleave
Размер файла : 700 Мбайт
Продолжительность : 1 ч. 0 м.
Общий поток : 1616 Кбит/сек
Программа кодирования : VirtualDubMod 1.5.1.1a (build 1639/release)
Библиотека кодирования : VirtualDubMod build 1639/release
Видео
Идентификатор : 0
Формат : MPEG-4 Visual
Параметр BVOP формата : 1
Параметр QPel формата : Нет
Параметр GMC формата : Без точки перехода
Параметр матрицы формата : Default (H.263)
Режим смешивания : Сжатый битовый поток
Идентификатор кодека : DX50
Идентификатор кодека/Подсказка : DivX 5
Продолжительность : 1 ч. 0 м.
Битрейт : 1222 Кбит/сек
Ширина : 512 пикселей
Высота : 384 пикселя
Соотношение сторон : 4:3
Частота кадров : 25,000 кадров/сек
Цветовое пространство : YUV
Субдискретизация насыщенности : 4:2:0
Битовая глубина : 8 бит
Тип развёртки : Прогрессивная
Метод сжатия : С потерями
Бит/(Пиксели*Кадры) : 0.249
Размер потока : 529 Мбайт (76%)
Библиотека кодирования : DivX 5.0.5 (UTC 2003-04-24)
Аудио
Идентификатор : 1
Формат : AC-3
Формат/Информация : Audio Coding 3
Расширение режима : CM (complete main)
Параметр Endianness формата : Big
Идентификатор кодека : 2000
Продолжительность : 1 ч. 0 м.
Вид битрейта : Постоянный
Битрейт : 384 Кбит/сек
Каналы : 6 каналов
Расположение каналов : Front: L C R, Side: L R, LFE
Частота : 48,0 КГц
Битовая глубина : 16 бит
Метод сжатия : С потерями
Задержка видео : 16 мс.
Размер потока : 166 Мбайт (24%)
Выравнивание : Разделение по промежуткам
Продолжительность промежутка : 40 мс. (1,00 видеокадр)
Время предзагрузки промежутка : 500 мс.

Media info:CD2

Формат : AVI
Формат/Информация : Audio Video Interleave
Размер файла : 700 Мбайт
Продолжительность : 55 м.
Общий поток : 1768 Кбит/сек
Программа кодирования : VirtualDubMod 1.5.1.1a (build 1639/release)
Библиотека кодирования : VirtualDubMod build 1639/release
Видео
Идентификатор : 0
Формат : MPEG-4 Visual
Параметр BVOP формата : 1
Параметр QPel формата : Нет
Параметр GMC формата : Без точки перехода
Параметр матрицы формата : Default (H.263)
Режим смешивания : Сжатый битовый поток
Идентификатор кодека : DX50
Идентификатор кодека/Подсказка : DivX 5
Продолжительность : 55 м.
Битрейт : 1374 Кбит/сек
Ширина : 512 пикселей
Высота : 384 пикселя
Соотношение сторон : 4:3
Частота кадров : 25,000 кадров/сек
Цветовое пространство : YUV
Субдискретизация насыщенности : 4:2:0
Битовая глубина : 8 бит
Тип развёртки : Прогрессивная
Метод сжатия : С потерями
Бит/(Пиксели*Кадры) : 0.280
Размер потока : 544 Мбайт (78%)
Библиотека кодирования : DivX 5.0.5 (UTC 2003-04-24)
Аудио
Идентификатор : 1
Формат : AC-3
Формат/Информация : Audio Coding 3
Расширение режима : CM (complete main)
Параметр Endianness формата : Big
Идентификатор кодека : 2000
Продолжительность : 55 м.
Вид битрейта : Постоянный
Битрейт : 384 Кбит/сек
Каналы : 6 каналов
Расположение каналов : Front: L C R, Side: L R, LFE
Частота : 48,0 КГц
Битовая глубина : 16 бит
Метод сжатия : С потерями
Размер потока : 152 Мбайт (22%)
Выравнивание : Разделение по промежуткам
Продолжительность промежутка : 40 мс. (1,00 видеокадр)
Время предзагрузки промежутка : 500 мс.
Скриншоты:

Время раздачи: с 8:00 до 24:00

Стивен Кинг - Дети кукурузы 2: Последняя жертва / Children of the Corn II: The Final Sacrifice. 1993

Русское название: Дети кукурузы 2: Последняя жертва
Оригинальное название: Children of the Corn II: The Final Sacrifice
Год выпуска: 1993
Жанр: Ужасы, Фэнтези, Триллер
Описание фильма: После того, как кошмар в Гатлине стал достоянием общественности, оставшиеся в живых дети были вывезены из города и распределены по детским домам и приютам. На горяченькое приехал и журналист Джон Гаррет вместе со своим сыном Дэниэлом. Однако городок для своего пребывания они выбрали не очень удачно - в нем заново начал поднимать голову кукурузный культ Того, Кто Ходит Между Стеблями. На этот раз основателем культа и новым пророком стал паренек Майца...
Режиссер: Дэвид Ф. Прайс /David F. Price/
Актеры: Теренс Нокс /Terence Knox/, Пол Шеррер /Paul Scherrer/, Райан Боллмэн /Ryan Bollman/, Кристи Кларк /Christie Clark/, Розалинд Аллен /Rosalind Allen/, Нед Ромеро /Ned Romero/
Продолжительность: 01:27:44
Перевод: Профессиональный многоголосый
Видеокодек: DivX
Битрейт видео: 941 Кбит/сек
Размер кадра: 640х480
Качество видео: DVDrip
Аудиокодек: MP3
Битрейт аудио: 160 Кбит/сек

Media info:

Формат : AVI
Формат/Информация : Audio Video Interleave
Размер файла : 694 Мбайт
Продолжительность : 1 ч. 27 м.
Общий поток : 1111 Кбит/сек
Программа кодирования : VirtualDubMod 1.5.10.2 (build 2540/release)
Библиотека кодирования : VirtualDub build 23604/release
Видео
Идентификатор : 0
Формат : MPEG-4 Visual
Параметр BVOP формата : Да
Параметр QPel формата : Нет
Параметр GMC формата : Без точки перехода
Параметр матрицы формата : Default (H.263)
Идентификатор кодека : DX50
Идентификатор кодека/Подсказка : DivX 5
Продолжительность : 1 ч. 27 м.
Битрейт : 941 Кбит/сек
Ширина : 640 пикселей
Высота : 480 пикселей
Соотношение сторон : 4:3
Частота кадров : 25,000 кадров/сек
Цветовое пространство : YUV
Субдискретизация насыщенности : 4:2:0
Битовая глубина : 8 бит
Тип развёртки : Прогрессивная
Метод сжатия : С потерями
Бит/(Пиксели*Кадры) : 0.123
Размер потока : 588 Мбайт (85%)
Библиотека кодирования : DivX 5.2.1 (WaffleDay) (UTC 2004-09-08)
Аудио
Идентификатор : 1
Формат : MPEG Audio
Версия формата : Version 1
Профиль формата : Layer 3
Идентификатор кодека : 55
Идентификатор кодека/Подсказка : MP3
Продолжительность : 1 ч. 27 м.
Вид битрейта : Постоянный
Битрейт : 160 Кбит/сек
Каналы : 2 канала
Частота : 44,1 КГц
Метод сжатия : С потерями
Размер потока : 99,9 Мбайт (14%)
Выравнивание : Разделение по промежуткам
Продолжительность промежутка : 40 мс. (1,00 видеокадр)
Время предзагрузки промежутка : 500 мс.
Скриншоты:

Время раздачи: с 8:00 до 24:00

Стивен Кинг - Противостояние/The Stand. 1994 год

Русское название: Противостояние
Оригинальное название: The Stand
Год выпуска: 1994
Жанр: Ужасы, Фэнтези, Триллер
Описание фильма: Открывается цитатой из "Апокалипсиса" о бледном всаднике на бледном коне. Кинг видит конец света в виде смертоносного вируса, утечка которого произошла с секретной военной базы. В первой серии вирус, который правительство называет гриппом, начинает распространяться. Показываются ужасы эпидемии - смерть, кошмар карантина, беспорядки, буйство толпы и жестокость полиции и армии. Но некоторые герои фильма обладают своего рода иммунитетом. Всем им видится один сон или видение: их зовет к себе старая негритянка Эбигэйл в хижине посреди кукурузного поля. Она показывает им лик зла. Цель ее - объединить силы добра, всех людей с доброй душой. Дъявольское отродье, монстр тоже начинает набор своих слуг. Картина состоит из четырех частей: "Чума" , "Сны" , "Предательство" и "Противостояние".
Режиссер: Мик Гэррис /Mick Garris/
Актеры: Гэри Синиз /Gary Sinise/, Молли Рингуолд /Molly Ringwald/, Джэйми Шеридан /Jamey Sheridan/, Лора Сан Джакомо /Laura San Giacomo/, Руби Ди /Ruby Dee/, Осси Дэвис /Ossie Davis/, Мигель Феррер /Miguel Ferrer/, Корин Немек /Corin Nemec/, Мэтт Фрюэр /Matt Frewer/, Эдам Сторк /Adam Storke/, Рэй Уолстон /Ray Walston/, Роб Лоу /Rob Lowe/
Продолжительность: 06:01:48
Перевод: Профессиональный многоголосый
Видеокодек: DivX
Битрейт видео: 910 Кбит/сек
Размер кадра: 512х384
Качество видео: DVDrip
Аудиокодек: MP3
Битрейт аудио: 96,0 Кбит/сек

Media info:CD1

Формат : AVI
Формат/Информация : Audio Video Interleave
Размер файла : 647 Мбайт
Продолжительность : 1 ч. 28 м.
Общий поток : 1018 Кбит/сек
Видео
Идентификатор : 0
Формат : MPEG-4 Visual
Параметр BVOP формата : Нет
Параметр QPel формата : Нет
Параметр GMC формата : Без точки перехода
Параметр матрицы формата : Default (H.263)
Идентификатор кодека : DX50
Идентификатор кодека/Подсказка : DivX 5
Продолжительность : 1 ч. 28 м.
Битрейт : 910 Кбит/сек
Ширина : 512 пикселей
Высота : 384 пикселя
Соотношение сторон : 4:3
Частота кадров : 23,976 кадра/сек
Цветовое пространство : YUV
Субдискретизация насыщенности : 4:2:0
Битовая глубина : 8 бит
Тип развёртки : Прогрессивная
Метод сжатия : С потерями
Бит/(Пиксели*Кадры) : 0.193
Размер потока : 578 Мбайт (89%)
Заголовок : NeoVideo10BV
Библиотека кодирования : DivX 5.1.1 (Maupiti) (UTC 2003-11-19)
Аудио
Идентификатор : 1
Формат : MPEG Audio
Версия формата : Version 1
Профиль формата : Layer 3
Режим : Joint stereo
Расширение режима : MS Stereo
Идентификатор кодека : 55
Идентификатор кодека/Подсказка : MP3
Продолжительность : 1 ч. 28 м.
Вид битрейта : Постоянный
Битрейт : 96,0 Кбит/сек
Каналы : 2 канала
Частота : 48,0 КГц
Метод сжатия : С потерями
Размер потока : 61,0 Мбайт (9%)
Выравнивание : Разделение по промежуткам
Продолжительность промежутка : 24 мс. (0,58 видеокадр)
Заголовок : NeoSound10BV0

Media info:CD2

Формат : AVI
Формат/Информация : Audio Video Interleave
Размер файла : 647 Мбайт
Продолжительность : 1 ч. 28 м.
Общий поток : 1018 Кбит/сек
Видео
Идентификатор : 0
Формат : MPEG-4 Visual
Параметр BVOP формата : Нет
Параметр QPel формата : Нет
Параметр GMC формата : Без точки перехода
Параметр матрицы формата : Default (H.263)
Идентификатор кодека : DX50
Идентификатор кодека/Подсказка : DivX 5
Продолжительность : 1 ч. 28 м.
Битрейт : 910 Кбит/сек
Ширина : 512 пикселей
Высота : 384 пикселя
Соотношение сторон : 4:3
Частота кадров : 23,976 кадра/сек
Цветовое пространство : YUV
Субдискретизация насыщенности : 4:2:0
Битовая глубина : 8 бит
Тип развёртки : Прогрессивная
Метод сжатия : С потерями
Бит/(Пиксели*Кадры) : 0.193
Размер потока : 578 Мбайт (89%)
Заголовок : NeoVideo10BV
Библиотека кодирования : DivX 5.1.1 (Maupiti) (UTC 2003-11-19)
Аудио
Идентификатор : 1
Формат : MPEG Audio
Версия формата : Version 1
Профиль формата : Layer 3
Режим : Joint stereo
Расширение режима : MS Stereo
Идентификатор кодека : 55
Идентификатор кодека/Подсказка : MP3
Продолжительность : 1 ч. 28 м.
Вид битрейта : Постоянный
Битрейт : 96,0 Кбит/сек
Каналы : 2 канала
Частота : 48,0 КГц
Метод сжатия : С потерями
Размер потока : 61,0 Мбайт (9%)
Выравнивание : Разделение по промежуткам
Продолжительность промежутка : 24 мс. (0,58 видеокадр)
Заголовок : NeoSound10BV0

Media info:CD3

Формат : AVI
Формат/Информация : Audio Video Interleave
Размер файла : 649 Мбайт
Продолжительность : 1 ч. 29 м.
Общий поток : 1018 Кбит/сек
Видео
Идентификатор : 0
Формат : MPEG-4 Visual
Параметр BVOP формата : Нет
Параметр QPel формата : Нет
Параметр GMC формата : Без точки перехода
Параметр матрицы формата : Default (H.263)
Идентификатор кодека : DX50
Идентификатор кодека/Подсказка : DivX 5
Продолжительность : 1 ч. 29 м.
Битрейт : 910 Кбит/сек
Ширина : 512 пикселей
Высота : 384 пикселя
Соотношение сторон : 4:3
Частота кадров : 23,976 кадра/сек
Цветовое пространство : YUV
Субдискретизация насыщенности : 4:2:0
Битовая глубина : 8 бит
Тип развёртки : Прогрессивная
Метод сжатия : С потерями
Бит/(Пиксели*Кадры) : 0.193
Размер потока : 579 Мбайт (89%)
Заголовок : NeoVideo10BV
Библиотека кодирования : DivX 5.1.1 (Maupiti) (UTC 2003-11-19)
Аудио
Идентификатор : 1
Формат : MPEG Audio
Версия формата : Version 1
Профиль формата : Layer 3
Режим : Joint stereo
Расширение режима : MS Stereo
Идентификатор кодека : 55
Идентификатор кодека/Подсказка : MP3
Продолжительность : 1 ч. 29 м.
Вид битрейта : Постоянный
Битрейт : 96,0 Кбит/сек
Каналы : 2 канала
Частота : 48,0 КГц
Метод сжатия : С потерями
Размер потока : 61,1 Мбайт (9%)
Выравнивание : Разделение по промежуткам
Продолжительность промежутка : 24 мс. (0,58 видеокадр)
Заголовок : NeoSound10BV0

Media info:CD4

Формат : AVI
Формат/Информация : Audio Video Interleave
Размер файла : 664 Мбайт
Продолжительность : 1 ч. 31 м.
Общий поток : 1019 Кбит/сек
Видео
Идентификатор : 0
Формат : MPEG-4 Visual
Параметр BVOP формата : Нет
Параметр QPel формата : Нет
Параметр GMC формата : Без точки перехода
Параметр матрицы формата : Default (H.263)
Идентификатор кодека : DX50
Идентификатор кодека/Подсказка : DivX 5
Продолжительность : 1 ч. 31 м.
Битрейт : 910 Кбит/сек
Ширина : 512 пикселей
Высота : 384 пикселя
Соотношение сторон : 4:3
Частота кадров : 23,976 кадра/сек
Цветовое пространство : YUV
Субдискретизация насыщенности : 4:2:0
Битовая глубина : 8 бит
Тип развёртки : Прогрессивная
Метод сжатия : С потерями
Бит/(Пиксели*Кадры) : 0.193
Размер потока : 593 Мбайт (89%)
Заголовок : NeoVideo10BV
Библиотека кодирования : DivX 5.1.1 (Maupiti) (UTC 2003-11-19)
Аудио
Идентификатор : 1
Формат : MPEG Audio
Версия формата : Version 1
Профиль формата : Layer 3
Режим : Joint stereo
Расширение режима : MS Stereo
Идентификатор кодека : 55
Идентификатор кодека/Подсказка : MP3
Продолжительность : 1 ч. 31 м.
Вид битрейта : Постоянный
Битрейт : 96,0 Кбит/сек
Каналы : 2 канала
Частота : 48,0 КГц
Метод сжатия : С потерями
Размер потока : 62,5 Мбайт (9%)
Выравнивание : Разделение по промежуткам
Продолжительность промежутка : 24 мс. (0,58 видеокадр)
Заголовок : NeoSound10BV0
Скриншоты:

Время раздачи: с 8:00 до 24:00

Стивен Кинг - Побег из Шоушенка/ The Shawshank Redemption. 1994 год

Русское название: Побег из Шоушенка
Оригинальное название: The Shawshank Redemption
Год выпуска: 1994
Жанр: Ужасы, Фэнтези, Триллер
Описание фильма: Ред по себе знает, что осужденный на пожизненный срок в государственной тюрьме Шоушенк может выйти из нее "лишь на кладбище". И когда в соседнюю камеру поместили молодого банкира Энди Дюфрэйна, приговоренного к пожизненному заключению за убийство жены и ее любовника, Ред был уверен, что хрупкий с виду новичок быстро сломается. Но он ошибся. Энди оказался очень необычным заключенным. Пройдя все круги ада, Энди не утратил силы воли и стремления к свободе, приготовив большой сюрприз для своих тюремщиков..
Режиссер: Фрэнк Дэрабонт /Frank Darabont/
Актеры: Тим Роббинс/Tim Robbins, Морган Фримэн/Morgan Frimen, Роберт Гантон/Robert Ganton, Гил Беллоуз/Gil Bellouz, Джеффри ДеМун/Jeffrey Demun, Марк Ролстон/Mark Rolston, Уильям Сэдлер/William Sadler, Клэнси Браун/Clancy Brown, Ларри Бранденбург/Larry Brandenburg, Боб Гантон/Bob Ganton
Продолжительность: 02:22:37
Перевод: Профессиональный многоголосый
Видеокодек: DivX
Битрейт видео: 984 Кбит/сек
Размер кадра: 720х416
Качество видео: DVDrip
Аудиокодек: AC-3
Битрейт аудио: 384 Кбит/сек

Media info:

Формат : AVI
Формат/Информация : Audio Video Interleave
Размер файла : 1,37 Гбайт
Продолжительность : 2 ч. 22 м.
Общий поток : 1375 Кбит/сек
Программа кодирования : VirtualDubMod 1.5.4.1 (build 2178/release)
Библиотека кодирования : VirtualDubMod build 2178/release
Видео
Идентификатор : 0
Формат : MPEG-4 Visual
Параметр BVOP формата : 1
Параметр QPel формата : Нет
Параметр GMC формата : Без точки перехода
Параметр матрицы формата : Default (H.263)
Режим смешивания : Сжатый битовый поток
Идентификатор кодека : DX50
Идентификатор кодека/Подсказка : DivX 5
Продолжительность : 2 ч. 22 м.
Битрейт : 984 Кбит/сек
Ширина : 720 пикселей
Высота : 416 пикселей
Соотношение сторон : 1,731
Частота кадров : 23,976 кадра/сек
Цветовое пространство : YUV
Субдискретизация насыщенности : 4:2:0
Битовая глубина : 8 бит
Тип развёртки : Прогрессивная
Метод сжатия : С потерями
Бит/(Пиксели*Кадры) : 0.137
Размер потока : 1003 Мбайт (72%)
Библиотека кодирования : DivX 6.4.0 (UTC 2006-10-03)
Аудио
Идентификатор : 1
Формат : AC-3
Формат/Информация : Audio Coding 3
Расширение режима : CM (complete main)
Параметр Endianness формата : Big
Идентификатор кодека : 2000
Продолжительность : 2 ч. 22 м.
Вид битрейта : Постоянный
Битрейт : 384 Кбит/сек
Каналы : 6 каналов
Расположение каналов : Front: L C R, Side: L R, LFE
Частота : 48,0 КГц
Битовая глубина : 16 бит
Метод сжатия : С потерями
Размер потока : 391 Мбайт (28%)
Выравнивание : Разделение по промежуткам
Продолжительность промежутка : 96 мс. (2,30 видеокадра)
Время предзагрузки промежутка : 96 мс.
Скриншоты:

Время раздачи: с 8:00 до 24:00

Стивен Кинг - Долорес Клейборн/Dolores Claiborne. 1995 год

Русское название: Долорес Клейборн
Оригинальное название: Dolores Claiborne
Год выпуска: 1995
Жанр: Ужасы, Фэнтези, Триллер
Описание фильма: Молодая журналистка Селена получает факс, что ее мать подозревается в убийстве аристократки Веры Донован, у которой служила уже 20 лет. Селена, которая не общалась с матерью уже 15 лет, возвращается в отчий дом и потихоньку на экране разворачивается история жизни и страданий Долорес Клейборн - ее матери. Долорес уже не первый раз становится подозреваемой - в свое время она также была подозреваемой в деле о смерти мужа (от несчастного случая), дело вел тот же детектив, что и сейчас. И ему очень хочется отыграться за предыдущее поражение.
Режиссер: Тэйлор Хэкфорд /Taylor Hackford
Актеры: Кэти Бэйтс /Kathy Bates, Дженнифер Джейсон Ли /Jennifer Jason Leigh, Кристофер Пламмер /Christopher Plummer, Дэвид Стрэтэйрн /David Strathairn, Джуди Парфитт /Judy Parfitt, Джон С. Рейлли /John C. Reilly, Эллен Мут /Ellen Muth, Роберт Гантон /Robert Gunton
Продолжительность: 02:03:16
Перевод: Профессиональный многоголосый
Видеокодек: DivX
Битрейт видео: 670 Кбит/сек
Размер кадра: 512х250
Качество видео: DVDrip
Аудиокодек: MP3
Битрейт аудио: 95,7 Кбит/сек

Media info:

Формат : AVI
Формат/Информация : Audio Video Interleave
Размер файла : 687 Мбайт
Продолжительность : 2 ч. 3 м.
Режим общего битрейта : Переменный
Общий поток : 779 Кбит/сек
Программа кодирования : Nandub v1.0rc2
Библиотека кодирования : Nandub build 1853/release
Видео
Идентификатор : 0
Формат : MPEG-4 Visual
Идентификатор кодека : DIV3
Идентификатор кодека/Подсказка : DivX 3 Low
Продолжительность : 2 ч. 3 м.
Битрейт : 670 Кбит/сек
Ширина : 512 пикселей
Высота : 250 пикселей
Соотношение сторон : 2,048
Частота кадров : 25,000 кадров/сек
Цветовое пространство : YUV
Субдискретизация насыщенности : 4:2:0
Битовая глубина : 8 бит
Метод сжатия : С потерями
Бит/(Пиксели*Кадры) : 0.209
Размер потока : 591 Мбайт (86%)
Аудио
Идентификатор : 1
Формат : MPEG Audio
Версия формата : Version 1
Профиль формата : Layer 3
Режим : Joint stereo
Расширение режима : MS Stereo
Идентификатор кодека : 55
Идентификатор кодека/Подсказка : MP3
Продолжительность : 2 ч. 3 м.
Вид битрейта : Переменный
Битрейт : 95,7 Кбит/сек
Каналы : 2 канала
Частота : 48,0 КГц
Метод сжатия : С потерями
Задержка видео : 21 мс.
Размер потока : 84,5 Мбайт (12%)
Выравнивание : Соединение по промежуткам
Продолжительность промежутка : 24 мс. (0,60 видеокадр)
Время предзагрузки промежутка : 528 мс.
Скриншоты:

Время раздачи: с 8:00 до 24:00

Стивен Кинг - Лангольеры/The Langoliers. 1995 год. актер

Русское название: Лангольеры
Оригинальное название: The Langoliers
Год выпуска: 1995
Жанр: Ужасы, Фэнтези, Триллер
Описание фильма: Пассажиры и экипаж рейсового самолета неожиданно попадают в другое измерение. При посадке они оказываются в пункте назначения, но совершенно пустом. Странности нарастают, постепенно переходя в психоз и кровавый кошмар. Чудовищные Лангольеры поедают не только людей и предметы, но и само пространство...
Режиссер: Том Холланд /Tom Holland/
Актеры: Пэтришиа Уэттиг /Patricia Wettig/, Дин Стокуэлл /Dean Stockwell/, Дэвид Морс /David Morse/, Марк Линдсэй Чэпмэн /Mark Lindsay Chapman/, Фрэнки Фэйсон /Frankie Faison/
Продолжительность: 02:59:24
Перевод: Профессиональный многоголосый
Видеокодек: DivX
Битрейт видео: 976 Кбит/сек
Размер кадра: 521х384
Качество видео: DVDrip
Аудиокодек: AC-3
Битрейт аудио: 256 Кбит/сек

Media info:

Формат : AVI
Формат/Информация : Audio Video Interleave
Размер файла : 1,55 Гбайт
Продолжительность : 2 ч. 59 м.
Общий поток : 1237 Кбит/сек
Программа кодирования : Nandub v2.01 Расширенная технология сжатия разработана Neiromaster'ом
Библиотека кодирования : Nandub 2.01 modified by Neiromaster
Видео
Идентификатор : 0
Формат : MPEG-4 Visual
Параметр BVOP формата : 1
Параметр QPel формата : Нет
Параметр GMC формата : 2 точки перехода
Параметр матрицы формата : Default (H.263)
Режим смешивания : Сжатый битовый поток
Идентификатор кодека : DX50
Идентификатор кодека/Подсказка : DivX 5
Продолжительность : 2 ч. 59 м.
Битрейт : 976 Кбит/сек
Ширина : 512 пикселей
Высота : 384 пикселя
Соотношение сторон : 4:3
Частота кадров : 23,976 кадра/сек
Цветовое пространство : YUV
Субдискретизация насыщенности : 4:2:0
Битовая глубина : 8 бит
Тип развёртки : Прогрессивная
Метод сжатия : С потерями
Бит/(Пиксели*Кадры) : 0.207
Размер потока : 1,23 Гбайт (79%)
Библиотека кодирования : DivX 5.0.5 (UTC 2003-04-24)
Аудио
Идентификатор : 1
Формат : AC-3
Формат/Информация : Audio Coding 3
Расширение режима : CM (complete main)
Параметр Endianness формата : Big
Идентификатор кодека : 2000
Продолжительность : 2 ч. 59 м.
Вид битрейта : Постоянный
Битрейт : 256 Кбит/сек
Каналы : 2 канала
Расположение каналов : Front: L R
Частота : 48,0 КГц
Битовая глубина : 16 бит
Метод сжатия : С потерями
Размер потока : 329 Мбайт (21%)
Выравнивание : Разделение по промежуткам
Продолжительность промежутка : 200 мс. (4,80 видеокадров)
Время предзагрузки промежутка : 200 мс.
Скриншоты:

Время раздачи: с 8:00 до 24:00
Вне форума [Профиль] [ЛС]
Похожие темы
Форум Тема Автор Торрент Отв. Посл. сообщение
./templates/default/images/folder_dl.gif Фантастика, фэнтези, ужасы, мистика Кинг Стивен – 11/22/63 [Князев Игорь (ЛИ), 2013 г., 160 kbps, MP3] Omen
1 | 0

0 | 332

3

2013-03-29 13:44
Omen Последнее
./templates/default/images/folder_dl.gif Фильмы 2001-2010 Я плюю на ваши могилы / I Spit on Your Grave (Стивен Р. Монро) [2010 г., криминал, триллер, ужасы, BDRip1080p] Владимирский
1 | 0

1 | 495

1

2015-07-21 05:03
Dracula Последнее
./templates/default/images/folder_dl.gif Психология, Тренинг, Саморазвитие Стивен Р. Кови | Семь навыков высокоэффективных людей. Мощные инструменты развития личности [+ Буклет] (2012) [MP3, PDF] Omen
0 | 1

0 | 344

4

2015-10-11 23:23
Omen Последнее
./templates/default/images/folder_dl.gif Книги для IPhone, IPod, Apple Кинг Стивен, Страуб Питер - Талисман [Воротилин Олег (ЛИ), 2016, Фэнтези, 128 kbps], M4B VHS
1 | 0

0 | 187

2

2016-03-27 19:57
VHS Последнее
./templates/default/images/folder_dl.gif Книги для IPhone, IPod, Apple Бахман Ричард \ Кинг Стивен - Регуляторы [vaska hulya (ЛИ), 2016, Триллер,мистика, 128 kbps], M4B VHS
1 | 0

0 | 259

1

2016-04-05 22:47
VHS Последнее
./templates/default/images/folder_dl.gif Книги для IPhone, IPod, Apple Кинг Стивен - Тёмная башня - V: Волки Кальи [Волков Роман, Булдаков Олег, Волкова Ирина, Князев Игорь, Digig, Петров Никита, BigBag, 2016, Фантастика, фэнтези, мистика, 192 kbps], M4B VHS
1 | 0

0 | 175

1

2016-09-02 18:56
VHS Последнее
./templates/default/images/folder_dl.gif Книги для IPhone, IPod, Apple Кинг Стивен - Противостояние [Булдаков Олег, 2016, Фантастика, мистика, 192 kbps], M4B VHS
1 | 0

1 | 243

2

2016-09-28 20:02
VHS Последнее
Показать сообщения:    
Ответить на тему

Текущее время: Сегодня 09:45

Часовой пояс: GMT + 3



Вы не можете начинать темы
Вы не можете отвечать на сообщения
Вы не можете редактировать свои сообщения
Вы не можете удалять свои сообщения
Вы не можете голосовать в опросах
Вы не можете прикреплять файлы к сообщениям
Вы не можете скачивать файлы