Сегодня идет свободное скачивание без начисления Download

Квартира для девочек / L\'appartement des filles (1963) [H.264] DVDRip

Ответить на тему
 
Автор
Сообщение

Omen ®

Стаж: 4 года 1 месяц

Сообщений: 194382

Торрент-статистика

Пост 09-Янв-2013 04:44

[Цитировать]

-Квартира для девочек / L'appartement des filles (1963) [H.264] DVDRip-- Русское название: Квартира для девочек
Оригинальное название: L'appartement des filles
Год выпуска: 1963
Страна: Франция, Италия, Германия (ФРГ)
Жанр: Комедия, Мелодрама, Криминал-Описание фильма:
"Квартира для девочек" - один из самых ранних фильмов Мишеля Девиля, поставленный по сценарию Нины Компанеез. Весёлая романтическая комедия хоть и не блещет глубоким смыслом (как, впрочем, и все фильмы данного жанра), зато блещет красотой трёх очаровательных главных героинь. Сами Фрей крайне убедителен в роли гангстера-соблазнителя и во второй половине фильма прекрасно смотрится в дуэте с французской звёздной красавицей украинского происхождения Милен Демонжо. Впрочем, Сильве Кошине и Ренате Эверт в первой половине картины тоже представляется немало возможностей показать себя с самых лучших сторон.
-Режиссер: Мишель Девиль
Актеры: Жан-Франсуа Кальве, Даниэль Секкальди, Милен Демонжо, Рената Эверт, Сами Фрей, Сильва Кошина....
Дата мировой премьеры: 10 июля 1964
Продолжительность: 01:23:18
Перевод: Одноголосый закадровый [humbert sound studio]-
Формат видео: AVI
Видеокодек: AVC/H.264
Битрейт видео: ~1491 Кбит/сек
Размер кадра: 640*384
Качество видео: DVDRip
Аудиокодек: MP3, 2 канала
Битрейт аудио: 256 Кбит/сек

MediaInfo:

Код:
Общее
Полное имя                               : :\\L'appartement.des.filles.1963.avi
Формат                                   : AVI
Формат/Информация                        : Audio Video Interleave
Профиль формата                          : OpenDML
Размер файла                             : 1,03 Гбайт
Продолжительность                        : 1 ч. 23 м.
Общий поток                              : 1764 Кбит/сек
Программа кодирования                    : Lavf52.94.0
Видео
Идентификатор                            : 0
Формат                                   : AVC
Формат/Информация                        : Advanced Video Codec
Профиль формата                          : [url=mailto:[email protected]][email protected][/url]
Параметр CABAC формата                   : Да
Параметр ReFrames формата                : 2 кадра
Идентификатор кодека                     : H264
Продолжительность                        : 1 ч. 23 м.
Битрейт                                  : 1491 Кбит/сек
Ширина                                   : 640 пикселей
Высота                                   : 384 пикселя
Соотношение сторон                       : 1,667
Режим частоты кадров                     : Переменный
Частота кадров                           : 23,976 кадра/сек
Цветовое пространство                    : YUV
Субдискретизация насыщенности            : 4:2:0
Битовая глубина                          : 8 бит
Тип развёртки                            : Прогрессивная
Бит/(Пиксели*Кадры)                      : 0.253
Размер потока                            : 888 Мбайт (85%)
Библиотека кодирования                   : x264 core 112 r1834 a51816a
Настройки программы                      : cabac=1 / ref=2 / deblock=1:0:0 / analyse=0x3:0x113 / me=hex / subme=6 / psy=1 / psy_rd=1.00:0.00 / mixed_ref=0 / me_range=16 / chroma_me=1 / trellis=0 / 8x8dct=1 / cqm=0 / deadzone=21,11 / fast_pskip=1 / chroma_qp_offset=-2 / threads=2 / sliced_threads=0 / nr=0 / decimate=1 / interlaced=0 / constrained_intra=0 / bframes=3 / b_pyramid=0 / b_adapt=1 / b_bias=0 / direct=3 / weightb=1 / open_gop=0 / weightp=2 / keyint=250 / keyint_min=25 / scenecut=40 / intra_refresh=0 / rc_lookahead=40 / rc=2pass / mbtree=1 / bitrate=1491 / ratetol=1.0 / qcomp=0.60 / qpmin=10 / qpmax=51 / qpstep=4 / cplxblur=20.0 / qblur=0.5 / ip_ratio=1.41 / aq=1:1.00
Аудио
Идентификатор                            : 1
Формат                                   : MPEG Audio
Версия формата                           : Version 1
Профиль формата                          : Layer 3
Режим                                    : Joint stereo
Расширение режима                        : MS Stereo
Идентификатор кодека                     : 55
Идентификатор кодека/Подсказка           : MP3
Продолжительность                        : 1 ч. 23 м.
Вид битрейта                             : Постоянный
Битрейт                                  : 256 Кбит/сек
Каналы                                   : 2 канала
Частота                                  : 48,0 КГц
Метод сжатия                             : С потерями
Размер потока                            : 153 Мбайт (15%)
Выравнивание                             : Соединение по промежуткам
Продолжительность промежутка             : 24  мс. (0,58 видеокадр)
Библиотека кодирования                   : LAME3.98.4
Скриншоты:          Время раздачи: 24/7 до первых 3-х скачавших, далее по возможности
Вне форума [Профиль] [ЛС]
Похожие темы
Форум Тема Автор Торрент Отв. Посл. сообщение
./templates/default/images/folder_dl.gif Разное М.Ю. Черничкин - Гипсокартон. Евроремонт в квартире своими руками [2012] [PDF] Omen
1 | 0

0 | 441

33

2012-08-06 23:19
Omen Последнее
./templates/default/images/folder_dl.gif Зарубежное кино Квартирный вопрос / Медовый месячник / The Honeymooners (Джон Шульц / John Schultz) [2005 г., драма, мелодрама, комедия, семейный, WEB-DL] [1080p] [AVO] (А.Карповский) + [Orig] Eng maxkiller
0 | 1

0 | 370

1

2014-09-02 19:46
maxkiller Последнее
./templates/default/images/folder_dl.gif Обучающее видео Артем Смолин | Ремонт квартиры своими руками (2014) [unpacked] Omen
1 | 0

0 | 137

40

2015-05-31 12:04
Omen Последнее
./templates/default/images/folder_dl.gif Строительство, Дизайн и Ремонт Д. Сафина, Е. Субеева | Дизайн вашей квартиры. 500 творческих идей (2015) [PDF] Aikivas
1 | 0

0 | 383

10

2015-11-12 18:32
Aikivas Последнее
./templates/default/images/folder_dl.gif Строительство, Дизайн и Ремонт А.А. Савельев | Ремонт квартиры. Энциклопедия (2010) [PDF] [email protected]
1 | 0

0 | 183

7

2016-08-12 20:10
[email protected] Последнее
Показать сообщения:    
Ответить на тему

Текущее время: Сегодня 20:22

Часовой пояс: GMT + 3



Вы не можете начинать темы
Вы не можете отвечать на сообщения
Вы не можете редактировать свои сообщения
Вы не можете удалять свои сообщения
Вы не можете голосовать в опросах
Вы не можете прикреплять файлы к сообщениям
Вы не можете скачивать файлы