Сегодня идет свободное скачивание без начисления Download

Джулия плохо себя ведет / Julia Misbehaves (1948) DVDRip

Ответить на тему
 
Автор
Сообщение

Omen ®

Стаж: 4 года 1 месяц

Сообщений: 194382

Торрент-статистика

Пост 09-Янв-2013 04:44

[Цитировать]

-Джулия плохо себя ведет / Julia Misbehaves (1948) DVDRip-- Русское название: Джулия плохо себя ведет
Оригинальное название: Julia Misbehaves
Год выпуска: 1948
Страна: США | Metro-Goldwyn-Mayer (MGM)
Жанр: Комедия, Мелодрама--Описание фильма:
Актриса Джулия Пэкетт не имеет средств существования. У Джулии есть дочь Сьюзен (Элизабет Тейлор), воспитываемая во Франции ее бабушкой в очень богатой семье. Джулия очень давно не видела свою дочь, так как Сьюзен было несколько месяцев, когда она её бросила.
Джулия получает приглашение на свадьбу своей дочери и едет во Францию на свадьбу, намереваясь вести себя безупречно. Но у судьбы есть способ поиграть с такими людьми как Джулия, и это - незадолго до того, как она должна принять участие в жизни Сьюзен...

Фильм основан на романе Марджери Шарп (Margery Sharp) - "Мускатное дерево" (The Nutmeg Tree)--Режиссер: Джек Конуэй
Актеры: Грир Гарсон, Уолтер Пиджон, Питер Лоуфорд, Элизабет Тейлор, Сизар Ромеро, Люсиль Уотсон, Найджел Брюс, Мэри Боланд, Реджинальд Оуэн, Генри Стивенсон ...
Продолжительность: 01:39:25
Перевод: Одноголосый закадровый [fiendover]

Дата мировой премьеры: 8 августа 1948
Видеокодек: DivX 5
Битрейт видео: ~1889 Кбит/сек
Размер кадра: 640*480
Качество видео: DVDRip
Аудио#1: AC3 2.0 (Front: L R), 192 Кбит/сек, русский
Аудио#2: AC3 2.0 (Front: L R), 192 Кбит/сек, английский (отдельным файлом)

MediaInfo:

Код:
Общее
Полное имя                               : :\\Julia Misbehaves 1948\Julia Misbehaves 1948.avi
Формат                                   : AVI
Формат/Информация                        : Audio Video Interleave
Размер файла                             : 1,45 Гбайт
Продолжительность                        : 1 ч. 39 м.
Общий поток                              : 2091 Кбит/сек
Программа кодирования                    : VirtualDubMod 1.5.10.3 | [url=http://www.virtualdub-fr.org]www.virtualdub-fr.org[/url] || (build 2550/release)
Библиотека кодирования                   : VirtualDubMod build 2550/release
Видео
Идентификатор                            : 0
Формат                                   : MPEG-4 Visual
Профиль формата                          : Advanced [email protected]
Параметр BVOP формата                    : 2
Параметр QPel формата                    : Нет
Параметр GMC формата                     : Без точки перехода
Параметр матрицы формата                 : Default (MPEG)
Идентификатор кодека                     : DX50
Идентификатор кодека/Подсказка           : DivX 5
Продолжительность                        : 1 ч. 39 м.
Битрейт                                  : 1889 Кбит/сек
Ширина                                   : 640 пикселей
Высота                                   : 480 пикселей
Соотношение сторон                       : 4:3
Частота кадров                           : 23,976 кадра/сек
Цветовое пространство                    : YUV
Субдискретизация насыщенности            : 4:2:0
Битовая глубина                          : 8 бит
Тип развёртки                            : Прогрессивная
Метод сжатия                             : С потерями
Бит/(Пиксели*Кадры)                      : 0.257
Размер потока                            : 1,31 Гбайт (90%)
Библиотека кодирования                   : XviD 1.2.1 (UTC 2008-12-04)
Аудио
Идентификатор                            : 1
Формат                                   : AC-3
Формат/Информация                        : Audio Coding 3
Расширение режима                        : CM (complete main)
Параметр Endianness формата              : Big
Идентификатор кодека                     : 2000
Продолжительность                        : 1 ч. 39 м.
Вид битрейта                             : Постоянный
Битрейт                                  : 192 Кбит/сек
Каналы                                   : 2 канала
Расположение каналов                     : Front: L R
Частота                                  : 48,0 КГц
Битовая глубина                          : 16 бит
Метод сжатия                             : С потерями
Размер потока                            : 137 Мбайт (9%)
Выравнивание                             : Разделение по промежуткам
Продолжительность промежутка             : 42  мс. (1,00 видеокадр)
Время предзагрузки промежутка            : 500  мс.
Скриншоты:          Время раздачи: 24/7 до первых 3-х скачавших, далее по возможности
Вне форума [Профиль] [ЛС]
Похожие темы
Форум Тема Автор Торрент Отв. Посл. сообщение
./templates/default/images/folder_dl.gif Кулинария Джули Кинг | Canon EOS 600D для чайников (2012) [PDF] Omen
1 | 0

0 | 256

2

2015-09-09 12:59
Omen Последнее
Показать сообщения:    
Ответить на тему

Текущее время: Сегодня 20:24

Часовой пояс: GMT + 3



Вы не можете начинать темы
Вы не можете отвечать на сообщения
Вы не можете редактировать свои сообщения
Вы не можете удалять свои сообщения
Вы не можете голосовать в опросах
Вы не можете прикреплять файлы к сообщениям
Вы не можете скачивать файлы