Сегодня идет свободное скачивание без начисления Download

Крестный отец III / The Godfather: Part III (1990)HDRip

Ответить на тему
 
Автор
Сообщение

Omen ®

Стаж: 4 года 1 месяц

Сообщений: 194390

Торрент-статистика

Пост 09-Янв-2013 04:44

[Цитировать]

-Крестный отец III / The Godfather: Part III (1990) HDRip- Русское название: Крестный отец III
Оригинальное название: The Godfather: Part III
Год выпуска: 1990
Жанр: Драма, Криминал
Описание фильма:
Заключительная часть знаменитой гангстерской эпопеи, в которой продолжается рассказ о делах «семьи» дона Корлеоне. Через двадцать лет после событий, описанных в предыдущей картине, Майкл Корлеоне решает заняться легальным бизнесом. Однако противодействие внутри клана заставляет его вспомнить об испытанных кровавых методах общения с противником, что приводит к трагическому итогу.
Режиссер: Фрэнсис Форд Коппола
Актеры: Аль Пачино, Дайан Китон, Энди Гарсиа, Джо Мантенья, Талия Шайр, Эли Уоллах, Джордж Хэмилтон, Бриджит Фонда, София Коппола, Раф Валлоне, Фрэнк Д’Амброзио, Донал Доннелли, Ричард Брайт, Хельмут Бергер, Дон Новелло, Джон Сэвидж, Франко Читти, Марио Донатоне, Витторио Дузе, Энцо Робутти, Мишель Руссо, Аль Мартино, Роберт Чиккини, Карлос Миранда, Роберт Венто, Уилли Браун, Джинни Линеро, Ремо Ремотти, Тере Ливрано, Кармине Кариди, Дон Костильо, Аль Руссо, Микки Нокс, Рик Авилес, Майкл Боуэн, Бретт Хэлси, Габриэль Торрей, Джон Абинери, Брайан Фрейлино, Грегори Корсо, Марино Мазе, Дадо Располи, Луиджи Лаэцца, Санто Инделикато, Пако Реконти
Продолжительность: 02:50:15
Перевод: Двуголосый закадровый
Автор перевода: перевод от Премьер Видео Фильм

Дата мировой премьеры: 20 декабря 1990
Дата выхода DVD релиза: 24 ноября 2009, «Юниверсал Пикчерс Рус»
Видеокодек: Xvid
Битрейт видео: ~23.976 fps, XviD, ~1090 kbps avg, 0.19 bit/pixel
Размер кадра: 656x368 (1.78:1)
Качество видео: HDRip
Аудиокодек: AC3 2.0
Битрейт аудио: 48 kHz, MPEG Layer 3, 2 ch, ~128.00 kbps avg

MediaInfo

D:\Загрузки\The_Godfather_III.avi
General
Complete name : D:\Загрузки\The_Godfather_III.avi
Format : AVI
Format/Info : Audio Video Interleave
File size : 1.46 GiB
Duration : 2h 50mn
Overall bit rate : 1 228 Kbps
Writing application : VirtualDubMod 1.5.10.3 | www.virtualdub-fr.org || (build 2550/release)
Writing library : VirtualDubMod build 2550/release
Video #0
ID : 0
Format : MPEG-4 Visual
Format profile : Advanced [email protected]
Format settings, BVOP : 2
Format settings, QPel : No
Format settings, GMC : No warppoints
Format settings, Matrix : Custom
Codec ID : XVID
Codec ID/Hint : XviD
Duration : 2h 50mn
Bit rate : 1 091 Kbps
Width : 656 pixels
Height : 368 pixels
Display aspect ratio : 16:9
Frame rate : 23.976 fps
Color space : YUV
Chroma subsampling : 4:2:0
Bit depth : 8 bits
Scan type : Progressive
Compression mode : Lossy
Bits/(Pixel*Frame) : 0.188
Stream size : 1.30 GiB (89%)
Writing library : XviD 64
Audio #1
ID : 1
Format : MPEG Audio
Format version : Version 1
Format profile : Layer 3
Codec ID : 55
Codec ID/Hint : MP3
Duration : 2h 50mn
Bit rate mode : Constant
Bit rate : 128 Kbps
Channel(s) : 2 channels
Sampling rate : 48.0 KHz
Compression mode : Lossy
Stream size : 156 MiB (10%)
Alignment : Aligned on interleaves
Interleave, duration : 42 ms (1.00 video frame)
Interleave, preload duration : 504 ms
Writing library : LAME3.99
Encoding settings : -m s -V 4 -q 2 -lowpass 17 -b 128
Сэмпл: http://www.multiupload.nl/PSI1V2R15D
Скриншоты:          Время раздачи: 24/7
Вне форума [Профиль] [ЛС]
Похожие темы
Форум Тема Автор Торрент Отв. Посл. сообщение
./templates/default/images/folder_dl.gif Приключения, детектив, боевик, триллер Маринина Александра - Тот, кто знает. Перекресток [Герасимов Вячеслав, 2012, 96 kbps, MP3] Omen
1 | 0

0 | 410

6

2012-12-11 05:28
Omen Последнее
./templates/default/images/folder_dl.gif Обучающее видео Радислав Гандапас - Крест лидера [2013, Бизнес, лидерство, DVDRip, RUS] (Видеоурок) Omen
1 | 0

0 | 497

32

2014-11-03 17:00
Omen Последнее
Показать сообщения:    
Ответить на тему

Текущее время: Сегодня 13:28

Часовой пояс: GMT + 3



Вы не можете начинать темы
Вы не можете отвечать на сообщения
Вы не можете редактировать свои сообщения
Вы не можете удалять свои сообщения
Вы не можете голосовать в опросах
Вы не можете прикреплять файлы к сообщениям
Вы не можете скачивать файлы