Сегодня идет свободное скачивание без начисления Download

Джентльмен из Эпсома / Le gentleman d\'Epsom (1962) DVDRip

Ответить на тему
 
Автор
Сообщение

Omen ®

Стаж: 4 года 1 месяц

Сообщений: 194382

Торрент-статистика

Пост 09-Янв-2013 04:44

[Цитировать]

-Джентльмен из Эпсома / Le gentleman d'Epsom (1962) DVDRip- Русское название: Джентльмен из Эпсома
Оригинальное название: Le gentleman d'Epsom
Год выпуска: 1962
Страна: Франция, Италия
Жанр: комедия, криминал
Перевод: Профессиональный (многоголосый, закадровый)


Премьера: 3 октября 1962
Режиссер: Жиль Гранжье
В ролях: Луи де Фюнес, Жан Габен, Мадлен Робинсон, Фрэнк Виллар, Жан Лефевр, Жак Марен, Жан Мартинелли, Жоэлль Бернар, Алин Бертран, Леонс Корн, Мари-Элен Дасте, Альбер Динан-Описание: Ричард Брианд-Чармери, бывший командор кавалерийского эскадрона, находится в отставке и промышляет «советами» на скачках. Он знаток всех лошадей на ипподроме и ловит наивных игроков, которые с охотой готовы заплатить за прогноз, тем более, если его сделал такой статный и солидный игрок, как господин Брианд. Чтобы гарантировано получить свой процент, он советует делать ставки нескольким игрокам одновременно на разных скакунов и сам не остается в накладе. «Командор» привык вести широкий образ жизни, а для этого нужны новые игроки, которых он «научит» и которым он «подскажет». Компаньон афериста, помогающий найти наивных новичков, рассказывает ему о рестораторе мсье Гаспаре Рипе, который имеет неплохой бизнес, но он глуп, жаден и страшно недоверчив. Чтобы уговорить его расстаться с деньгами, необходим человек с большим стажем игры на тотализаторе и великим опытом убеждения. А это, конечно же, «Командор». Одурманенный красивыми рассказами об успехах предсказаний «Командора», Рипе с радостью расстается с крупной суммой ради большого куша, но он не знает, что ждет его впереди…-Продолжительность: 01:23:29
Качество видео: DVDRip
Видеокодек: XviD
Формат: AVI
Битрейт видео: 2143 Кбит/сек
Размер кадра: 720x320 (2.25:1)
Аудиокодек: АСЗ
Аудио Русский, AC3, 2 ch, 192 Кбит/с

MediaInfo

Format : AVI
Format/Info : Audio Video Interleave
File size : 1.37 GiB
Duration : 1h 23mn
Overall bit rate : 2 342 Kbps
Writing application : VirtualDubMod 1.5.4.1 (build 2178/release)
Writing library : VirtualDubMod build 2178/release
Video
ID : 0
Format : MPEG-4 Visual
Format profile : Advanced [email protected]
Format settings, BVOP : 1
Format settings, QPel : No
Format settings, GMC : No warppoints
Format settings, Matrix : Custom
Codec ID : XVID
Codec ID/Hint : XviD
Duration : 1h 23mn
Bit rate : 2 143 Kbps
Width : 720 pixels
Height : 320 pixels
Display aspect ratio : 2.25:1
Frame rate : 25.000 fps
Color space : YUV
Chroma subsampling : 4:2:0
Bit depth : 8 bits
Scan type : Progressive
Compression mode : Lossy
Bits/(Pixel*Frame) : 0.372
Stream size : 1.25 GiB (92%)
Writing library : XviD 1.2.0.dev47 (UTC 2006-11-01)
Audio
ID : 1
Format : AC-3
Format/Info : Audio Coding 3
Mode extension : CM (complete main)
Format settings, Endianness : Big
Codec ID : 2000
Duration : 1h 23mn
Bit rate mode : Constant
Bit rate : 192 Kbps
Channel(s) : 2 channels
Channel positions : Front: L R
Sampling rate : 48.0 KHz
Bit depth : 16 bits
Compression mode : Lossy
Stream size : 115 MiB (8%)
Alignment : Split accross interleaves
Interleave, duration : 96 ms (2.40 video frames)
Interleave, preload duration : 96 ms
Language : Russian
Скриншоты:
         
         
Время раздачи: 24/7
Вне форума [Профиль] [ЛС]
Показать сообщения:    
Ответить на тему

Текущее время: Сегодня 22:19

Часовой пояс: GMT + 3



Вы не можете начинать темы
Вы не можете отвечать на сообщения
Вы не можете редактировать свои сообщения
Вы не можете удалять свои сообщения
Вы не можете голосовать в опросах
Вы не можете прикреплять файлы к сообщениям
Вы не можете скачивать файлы