Сегодня идет свободное скачивание без начисления Download

Санкция на пике Эйгера / The Eiger Sanction (1975) HDTVRip

Ответить на тему
 
Автор
Сообщение

Omen ®

Стаж: 4 года 1 месяц

Сообщений: 194359

Торрент-статистика

Пост 09-Янв-2013 04:44

[Цитировать]

-Санкция на пике Эйгера / The Eiger Sanction (1975) HDTVRip«HIS LIFELINE - held by the assassin he hunted.»- Русское название: Санкция на пике Эйгера
Оригинальное название: The Eiger Sanction
Год выпуска: 1975
Жанр: Боевик, Триллер
Описание фильма:
Джонатан Хемлок — ушедший в отставку агент правительственных спецслужб, давно ушедший в отставку и теперь занимающийся педагогической деятельностью в колледже искусств. Однако зарплаты педагога, разумеется, не хватает на удовлетворение его главной страсти — коллекционирования живописных полотен, поэтому время от времени Джонатан принимает на себя новые секретные задание.
Новая миссия — одна из самых опасных в карьере. Он должен «вычислить» и уничтожить шпиона, находящегося в составе альпинистской группы. Для этого ему придется вместе со всеми совершить восхождение на опасный пик Эйгер в Швейцарских Альпах…

Режиссер: Клинт Иствуд / Clint Eastwood
Актеры: Клинт Иствуд / Clint Eastwood, Джордж Кеннеди / George Kennedy, Вонетта МакГи / Vonetta McGee, Джек Кэссиди / Jack Cassidy, Тэйер Дэвид / Thayer David, Хайди Брюль / Heidi Bruhl, Райнер Шоне / Reiner Schone, Бренда Винэс / Brenda Venus, Дэн Хауард / Dan Howard, Илэйн Шор / Elaine Shore, Кэндис Риэлсон / Candice Realson, Жан-Пьер Бернард / Jean-Pierre Bernard, Майкл Гримм / Michael Grimm, Грегори Уолкотт / Gregory Walcott
Продолжительность: 2:08:46
Перевод: Многоголосый закадровый

_______________________________
Видеокодек: Xvid
Битрейт видео: ~1425 Kbps
Размер кадра: 720x304
Качество видео: HDTVRip
Аудио: AC 3, 2 ch, 192 kbps-

MI

General
Complete name : The.Eiger.Sanction.1975.HDTVRip.avi
Format : AVI
Format/Info : Audio Video Interleave
File size : 1.46 GiB
Duration : 2h 8mn
Overall bit rate : 1 627 Kbps
Writing application : VirtualDubMod 1.5.10.3 | www.virtualdub-fr.org || (build 2550/release)
Writing library : VirtualDubMod build 2550/release
Video
ID : 0
Format : MPEG-4 Visual
Format profile : Advanced [email protected]
Format settings, BVOP : 1
Format settings, QPel : No
Format settings, GMC : No warppoints
Format settings, Matrix : Custom
Codec ID : XVID
Codec ID/Hint : XviD
Duration : 2h 8mn
Bit rate : 1 425 Kbps
Width : 720 pixels
Height : 304 pixels
Display aspect ratio : 2.35:1
Frame rate : 23.976 fps
Color space : YUV
Chroma subsampling : 4:2:0
Bit depth : 8 bits
Scan type : Progressive
Compression mode : Lossy
Bits/(Pixel*Frame) : 0.272
Stream size : 1.28 GiB (88%)
Writing library : XviD 65
Audio
ID : 1
Format : AC-3
Format/Info : Audio Coding 3
Mode extension : CM (complete main)
Format settings, Endianness : Big
Codec ID : 2000
Duration : 2h 8mn
Bit rate mode : Constant
Bit rate : 192 Kbps
Channel(s) : 2 channels
Channel positions : Front: L R
Sampling rate : 48.0 KHz
Bit depth : 16 bits
Compression mode : Lossy
Stream size : 177 MiB (12%)
Alignment : Split accross interleaves
Interleave, duration : 42 ms (1.00 video frame)
Interleave, preload duration : 500 ms
-
Время раздачи: с 23:00 до 6:30
Вне форума [Профиль] [ЛС]
Показать сообщения:    
Ответить на тему

Текущее время: Сегодня 14:52

Часовой пояс: GMT + 3



Вы не можете начинать темы
Вы не можете отвечать на сообщения
Вы не можете редактировать свои сообщения
Вы не можете удалять свои сообщения
Вы не можете голосовать в опросах
Вы не можете прикреплять файлы к сообщениям
Вы не можете скачивать файлы