Сегодня идет свободное скачивание без начисления Download

Знак Венеры / Il Segno di Venere (1955) [H.264] DVDRip

Ответить на тему
 
Автор
Сообщение

Omen ®

Стаж: 4 года 1 месяц

Сообщений: 194394

Торрент-статистика

Пост 09-Янв-2013 04:44

[Цитировать]

-Знак Венеры / Il Segno di Venere (1955) [H.264] DVDRip- Русское название: Знак Венеры
Оригинальное название: Il Segno di Venere
Год выпуска: 1955
Жанр: Мелодрама, Комедия
Описание фильма:
Молодая провинциалка Чезира живет у родственников, работает в бюро машинисткой, а свободное время проводит в компании с двоюродной сестрой. Обе девушки мечтают выйти замуж. По прогнозам знакомой гадалки, в жизни Чезиры наступает период Венеры - время выбора жениха. Вот только все потенциальные женихи, с которыми Чезире удается познакомиться, увидев красавицу-сестру, мгновенно переключаются на нее.
Режиссер: Дино Ризи
Актеры: София Лорен,Франка Валери, Витторио Де Сика, Раф Валлоне, Вирджилио Риенто, Тина Пика,Пеппино Де Филиппо, Альберто Сорди, Лина Дженнари, Элоиза Чианни, Леопольдо Триесте, Маурицио Арена, Франко Фантазия, Марчелла Ровена, Анита Дуранте
Продолжительность: 01:33:28
Перевод: Профессиональный двухголосый закадровый
Вид субтитров: нет

Дата мировой премьеры: 12.03.55
Видеокодек: MPEG-4 AVC/H.264
Битрейт видео: ~2047 Кбит/сек
Размер кадра: 720x576
Качество видео: DVDRip
Аудиокодек: AC3 2.0
Битрейт аудио:
Audio1: 192 Кбит/сек - русский
Audio1: 192 Кбит/сек - итальянский

MediaInfo:

Общее
Уникальный идентификатор : 217856331124443971023867650932387500678 (0xA3E59A694368CAD8B1DDA42B3BDA5286)
Полное имя : G:\!V\Знак Венеры mkv\Знак Венеры.mkv
Формат : Matroska
Версия формата : Version 2
Размер файла : 1,62 Гбайт
Продолжительность : 1 ч. 33 м.
Общий поток : 2481 Кбит/сек
Дата кодирования : UTC 2012-12-14 14:57:18
Программа кодирования : mkvmerge v5.8.0 ('No Sleep / Pillow') built on Sep 2 2012 15:37:04
Библиотека кодирования : libebml v1.2.3 + libmatroska v1.3.0
Видео
Идентификатор : 1
Формат : AVC
Формат/Информация : Advanced Video Codec
Профиль формата : [url=mailto:[email protected]][email protected][/url]
Параметр CABAC формата : Нет
Параметр ReFrames формата : 2 кадра
Параметр GOP формата : M=1, N=12
Режим смешивания : Header stripping
Идентификатор кодека : V_MPEG4/ISO/AVC
Продолжительность : 1 ч. 33 м.
Битрейт : 2047 Кбит/сек
Ширина : 720 пикселей
Высота : 576 пикселей
Соотношение сторон : 5:4
Соотношение сторон в оригинале : 4:3
Режим частоты кадров : Постоянный
Частота кадров : 23,976 кадра/сек
Стандарт вещания : NTSC
Цветовое пространство : YUV
Субдискретизация насыщенности : 4:2:0
Битовая глубина : 8 бит
Тип развёртки : Прогрессивная
Бит/(Пиксели*Кадры) : 0.206
Размер потока : 1,34 Гбайт (83%)
Default : Да
Forced : Нет
Основные цвета : BT.601 NTSC
Характеристики трансфера : BT.601
Коэффициенты матрицы : BT.601
Аудио #1
Идентификатор : 2
Формат : AC-3
Формат/Информация : Audio Coding 3
Расширение режима : CM (complete main)
Параметр Endianness формата : Big
Режим смешивания : Header stripping
Идентификатор кодека : A_AC3
Продолжительность : 1 ч. 33 м.
Вид битрейта : Постоянный
Битрейт : 192 Кбит/сек
Каналы : 2 канала
Расположение каналов : Front: L R
Частота : 48,0 КГц
Битовая глубина : 16 бит
Метод сжатия : С потерями
Задержка видео : 2 мс.
Размер потока : 128 Мбайт (8%)
Заголовок : AC3 русский
Язык : Russian
Default : Нет
Forced : Нет
Аудио #2
Идентификатор : 3
Формат : AC-3
Формат/Информация : Audio Coding 3
Расширение режима : CM (complete main)
Параметр Endianness формата : Big
Режим смешивания : Header stripping
Идентификатор кодека : A_AC3
Продолжительность : 1 ч. 33 м.
Вид битрейта : Постоянный
Битрейт : 192 Кбит/сек
Каналы : 2 канала
Расположение каналов : Front: L R
Частота : 48,0 КГц
Битовая глубина : 16 бит
Метод сжатия : С потерями
Задержка видео : 2 мс.
Размер потока : 128 Мбайт (8%)
Заголовок : AC3 итальянский
Язык : Italian
Default : Нет
Forced : Нет
Скриншоты:
         
         
Время раздачи: C 09:00 до 23:00
Вне форума [Профиль] [ЛС]
Показать сообщения:    
Ответить на тему

Текущее время: Сегодня 21:00

Часовой пояс: GMT + 3



Вы не можете начинать темы
Вы не можете отвечать на сообщения
Вы не можете редактировать свои сообщения
Вы не можете удалять свои сообщения
Вы не можете голосовать в опросах
Вы не можете прикреплять файлы к сообщениям
Вы не можете скачивать файлы