Сегодня идет свободное скачивание без начисления Download

Супер Фантоцци / Superfantozzi (1986) DVDRip

Ответить на тему
 
Автор
Сообщение

Omen ®

Стаж: 4 года 2 месяца

Сообщений: 197572

Торрент-статистика

Пост 09-Янв-2013 04:44

[Цитировать]

-Супер Фантоцци / Superfantozzi (1986) DVDRip- Русское название: Супер Фантоцци
Оригинальное название: Superfantozzi
Год выпуска: 1986
Жанр: Комедия
Выпущено: Италия
Описание фильма:
Очередной фильм о злоключениях Уго Фантоцци авторы фильма решили начать с самого, самого начала, а именно, с сотворения человека в раю, где Фантоции был первой, неудачной попыткой Господа создать нас по образу и подобию своему. Через день он создал Адама, Еву. Увидев, что было выдано Адаму, Уго тоже попросил женщину. И получил на свою... голову (полная противоположность красавице Еве). Потом Господь изгоняет супругов Фантоцци из Рая за то что Фантоцци по просьбе Евы сорвал запретный плод. Но Господь не знал о злой шутке Евы. Далее идут небольшие сюжеты, в которых показывается злоключения Фантоцци в разных исторических эпохах. Сначала злоключения Фантоцци в доисторические времена, затем в Древнем Риме, затем время Иисуса Христа, далее — Средневековье, время Робин Гуда, французской революции, 19 век, 30-е годы в США, Вторая Мировая война, современность (т. е. 1986) и будущее.
Режиссер: Нери Паренти
Актеры: Паоло Вилладжо, Лью Босисио, Джиджи Редер, Плинио Фернандо, Ева Лена, Люк Меренда, Джимми иль Феномено
Продолжительность: 01:29:48
Перевод: Одноголосый закадровый
Субтитры: Нет

Дата мировой премьеры: 23 декабря 1986
Видеокодек: Xvid
Битрейт видео: ~2130 Кбит/с
Размер кадра: 704 х 544
Качество видео: DVDRip
Аудио: AC3, 2ch, 192 Кбит/с
Сэмпл: Ссылка

Медиаинфо

Код:
General
Complete name                    : F:\ФИЛЬМЫ-КОЛЛЕКЦИЯ\Ф-Ф\Superfantozzi.1986.XviD.DVDRip.avi
Format                           : AVI
Format/Info                      : Audio Video Interleave
File size                        : 1.46 GiB
Duration                         : 1h 29mn
Overall bit rate                 : 2 332 Kbps
Writing application              : VirtualDubMod 1.5.10.2 (build 2540/release)
Writing library                  : VirtualDubMod build 2540/release
Video
ID                               : 0
Format                           : MPEG-4 Visual
Format profile                   : Advanced [email protected]
Format settings, BVOP            : Yes2ch, 192 Кбит/с
Format settings, QPel            : No
Format settings, GMC             : No warppoints
Format settings, Matrix          : Default (MPEG)
Codec ID                         : XVID
Codec ID/Hint                    : XviD
Duration                         : 1h 29mn
Bit rate                         : 2 130 Kbps
Width                            : 704 pixels
Height                           : 544 pixels
Display aspect ratio             : 1.294
Frame rate                       : 25.000 fps
Resolution                       : 8 bits
Colorimetry                      : 4:2:0
Scan type                        : Progressive
Bits/(Pixel*Frame)               : 0.222
Stream size                      : 1.34 GiB (91%)
Writing library                  : XviD 1.2.0.dev47 (UTC 2006-11-01)
Audio
ID                               : 1
Format                           : AC-3
Format/Info                      : Audio Coding 3
Codec ID                         : 2000
Duration                         : 1h 29mn
Bit rate mode                    : Constant
Bit rate                         : 192 Kbps
Channel(s)                       : 2 channels
Channel positions                : Front: L R
Sampling rate                    : 48.0 KHz
Stream size                      : 123 MiB (8%)
Alignment                        : Split accross interleaves
Interleave, duration             : 40 ms (1.00 video frame)
Interleave, preload duration     : 500 ms
Скриншоты:
       
Время раздачи: 24/7
Вне форума [Профиль] [ЛС]
Похожие темы
Форум Тема Автор Торрент Отв. Посл. сообщение
./templates/default/images/folder_dl.gif Обучающее видео Суперздоровье. Экстремальная медицина [Система активной самообороны Булат, 2012, Здоровье, цигун, народная медицина, иммунитет, DVDRip, RUS] (Видеоурок) Omen
1 | 0

1 | 3228

91

2014-12-11 02:47
bez_problem Последнее
./templates/default/images/folder_dl.gif Обучающее видео Элержон Кимсанов | Супер Premiere Pro (2016) PCRec [H.264] moralis
1 | 0

0 | 327

19

2016-02-01 21:17
moralis Последнее
Показать сообщения:    
Ответить на тему

Текущее время: Сегодня 00:13

Часовой пояс: GMT + 3



Вы не можете начинать темы
Вы не можете отвечать на сообщения
Вы не можете редактировать свои сообщения
Вы не можете удалять свои сообщения
Вы не можете голосовать в опросах
Вы не можете прикреплять файлы к сообщениям
Вы не можете скачивать файлы