Сегодня идет свободное скачивание без начисления Download

Баффало Билл и индейцы / Буффало Билл и индейцы / Buffalo Bill and the Indians, or Sitting Bull\'s History Lesson (1976) DVDRip

Ответить на тему
 
Автор
Сообщение

Omen ®

Стаж: 4 года 1 месяц

Сообщений: 194394

Торрент-статистика

Пост 09-Янв-2013 04:44

[Цитировать]

-Баффало Билл и индейцы / Буффало Билл и индейцы / Buffalo Bill and the Indians, or Sitting Bull's History Lesson (1976) DVDRip- Русское название: Баффало Билл и индейцы
Оригинальное название: Buffalo Bill and the Indians, or Sitting Bull's History Lesson
Год выпуска: 1976
Жанр: Вестерн, Комедия
Описание фильма:
Конец ХIХ века в Америке - это время, когда реальность легко становилась легендой и обыкновенные люди возвышались до мифических размеров. Этот период был временем Баффало Билла. Курьер компании «Пони Экспресс», кавалерийский разведчик, кавалер медали Чести, охотник на бизонов, шоумэн, актер, ставший идолом для женщин, и предприниматель Баффало Билл был национальным символом.
Но чрезмерное употребление алкоголя и внимание публики не лучшим образом отразились на его характере и послужили причиной тому, что в реальности он далеко не всегда соответствовал образу легендарного героя. Когда Билл, в погоне за славой, уговаривает вождя индейского племени Сидящего Быка принять участие в шоу «Дикий Запад Баффало Билла», то совсем не ожидает, что тот имеет свой собственный тайный сценарий, включающий президента Америки и генерала Кастера.
Вождь краснокожих намерен преподать Биллу хороший урок, показав, что нельзя унижать достоинство истории посредством дешевой мелодрамы.

Режиссер: Роберт Олтмэн
Актеры: Пол Ньюман, Джоэл Грей, Кевин МакКарти, Харви Кейтель, Аллан Ф. Николлс, Джеральдина Чаплин, Джон Консидайн, Роберт Дукуй, Берт Ремсен
Продолжительность: 01:58:06
Перевод: Многоголосый закадровый

Дата мировой премьеры: 24.06.1976
Дата выхода DVD релиза: 15.09.2009, «Юниверсал Пикчерс Рус»
Видеокодек: Xvid
Битрейт видео: ~1543 kbps
Размер кадра: 720x320
Качество видео: DVDRip
Аудиокодек: AC3,2ch
Битрейт аудио: ~192.00 kbps

MI:

Общее
Полное имя : D:\Archyv\Films\Баффало Билл и индейцы.avi
Формат : AVI
Формат/Информация : Audio Video Interleave
Размер файла : 1,44 Гбайт
Продолжительность : 1 ч. 58 м.
Общий поток : 1744 Кбит/сек
Программа кодирования : VirtualDubMod 1.5.10.2 (build 2540/release)
Библиотека кодирования : VirtualDubMod build 2540/release
Видео
Идентификатор : 0
Формат : MPEG-4 Visual
Профиль формата : Advanced [email protected]
Параметр BVOP формата : 2
Параметр QPel формата : Нет
Параметр GMC формата : Без точки перехода
Параметр матрицы формата : Default (H.263)
Режим смешивания : Сжатый битовый поток
Идентификатор кодека : XVID
Идентификатор кодека/Подсказка : XviD
Продолжительность : 1 ч. 58 м.
Битрейт : 1543 Кбит/сек
Ширина : 720 пикселей
Высота : 320 пикселей
Соотношение сторон : 2,25:1
Частота кадров : 25,000 кадров/сек
Цветовое пространство : YUV
Субдискретизация насыщенности : 4:2:0
Битовая глубина : 8 бит
Тип развёртки : Прогрессивная
Метод сжатия : С потерями
Бит/(Пиксели*Кадры) : 0.268
Размер потока : 1,27 Гбайт (88%)
Библиотека кодирования : XviD 1.1.2 (UTC 2006-11-01)
Аудио
Идентификатор : 1
Формат : AC-3
Формат/Информация : Audio Coding 3
Расширение режима : CM (complete main)
Параметр Endianness формата : Big
Идентификатор кодека : 2000
Продолжительность : 1 ч. 57 м.
Вид битрейта : Постоянный
Битрейт : 192 Кбит/сек
Каналы : 2 канала
Расположение каналов : Front: L R
Частота : 48,0 КГц
Битовая глубина : 16 бит
Метод сжатия : С потерями
Размер потока : 162 Мбайт (11%)
Выравнивание : Разделение по промежуткам
Продолжительность промежутка : 40 мс. (1,00 видеокадр)
Время предзагрузки промежутка : 500 мс.
Скриншоты:          
     
Время раздачи: с 6:00 до 22:00 (GMT +2)
Вне форума [Профиль] [ЛС]
Показать сообщения:    
Ответить на тему

Текущее время: Сегодня 09:47

Часовой пояс: GMT + 3



Вы не можете начинать темы
Вы не можете отвечать на сообщения
Вы не можете редактировать свои сообщения
Вы не можете удалять свои сообщения
Вы не можете голосовать в опросах
Вы не можете прикреплять файлы к сообщениям
Вы не можете скачивать файлы