Сегодня идет свободное скачивание без начисления Download

Стивен Кинг. Коллекция фильмов. часть 2 / (1985 - 1990) DVDRip

Ответить на тему
 
Автор
Сообщение

Omen ®

Стаж: 4 года 1 месяц

Сообщений: 194394

Торрент-статистика

Пост 09-Янв-2013 04:44

[Цитировать]

-Стивен Кинг. Коллекция фильмов. часть 2 / (1985 - 1990) DVDRip- Русское название: Стивен Кинг.
Оригинальное название: Коллекция фильмов.
Год выпуска: 1985 - 1990
Жанр: Ужасы, Фэнтези, Триллер
Фильмы отсортированны по году выхода на экран. Часть 2

Стивен Кинг - Кошачий глаз/Cat's Eye. 1985 год.

Русское название: Кошачий глаз
Оригинальное название: Cat's Eye
Год выпуска: 1985
Жанр: Ужасы, Фэнтези, Триллер
Описание фильма: Три новеллы ужасов по рассказам Стивена Кинга. Связующим ”героем” которых является бездомный кот, как бы свидетель происходящих событий. Но эти три истории достаточно разнятся между собой: переход от "черной комедии" к ужастику и к сказке. Если сложить все вместе, то получается рассказ в стиле "страшных сказок", которые дети любят рассказывать друг другу по ночам, о приключениях кота, пытающегося спасти маленькую девочку от неизвестной опасности...
Режиссер: Льюис Тиг /Lewis Teague/
Актеры: Дрю Бэрримор /Drew Barrymore/, Джеймс Вудс /James Woods/, Роберт Хэйз /Robert Hays/, Кеннет МакМиллэн /Kenneth McMillan/, Кэнди Кларк /Candy Clark/
Продолжительность: 01:34:07
Перевод: Професииональный многоголосный
Видеокодек: XVID
Битрейт видео: 903 Кбит/сек
Размер кадра: 640х272
Качество видео: DVDRip
Аудиокодек: MP3
Битрейт аудио: 128 Кбит/сек

Media info:

Формат : AVI
Формат/Информация : Audio Video Interleave
Размер файла : 700 Мбайт
Продолжительность : 1 ч. 34 м.
Общий поток : 1038 Кбит/сек
Название фильма : SENATORiNFO-TEAM
Режиссёр : SENATOR
Программа кодирования : VirtualDubMod 1.5.4.1 (build 2178/release)
Правообладатель : www.senatorinfo.com
Примечание : 18.02.2007
Видео
Идентификатор : 0
Формат : MPEG-4 Visual
Профиль формата : Advanced [email protected]
Параметр BVOP формата : 1
Параметр QPel формата : Нет
Параметр GMC формата : Без точки перехода
Параметр матрицы формата : Выборочная
Идентификатор кодека : XVID
Идентификатор кодека/Подсказка : XviD
Продолжительность : 1 ч. 34 м.
Битрейт : 903 Кбит/сек
Ширина : 640 пикселей
Высота : 272 пикселя
Соотношение сторон : 2,35:1
Частота кадров : 23,976 кадра/сек
Цветовое пространство : YUV
Субдискретизация насыщенности : 4:2:0
Битовая глубина : 8 бит
Тип развёртки : Прогрессивная
Метод сжатия : С потерями
Бит/(Пиксели*Кадры) : 0.216
Размер потока : 609 Мбайт (87%)
Библиотека кодирования : XviD 1.2.0.dev47 (UTC 2006-11-01)
Аудио
Идентификатор : 1
Формат : MPEG Audio
Версия формата : Version 1
Профиль формата : Layer 3
Режим : Joint stereo
Расширение режима : MS Stereo
Идентификатор кодека : 55
Идентификатор кодека/Подсказка : MP3
Продолжительность : 1 ч. 34 м.
Вид битрейта : Постоянный
Битрейт : 128 Кбит/сек
Каналы : 2 канала
Частота : 48,0 КГц
Метод сжатия : С потерями
Размер потока : 86,3 Мбайт (12%)
Выравнивание : Соединение по промежуткам
Продолжительность промежутка : 83 мс. (2,00 видеокадра)
Время предзагрузки промежутка : 504 мс.
Библиотека кодирования : LAME3.97
Настройки программы : -m j -V 4 -q 2 -lowpass 17 -b 128
Скриншоты:

Время раздачи: с 8:00 до 24:00

Стивен Кинг - Серебрянная пуля/Silver Bullet. 1985 год

Русское название: Серебрянная пуля
Оригинальное название: Silver Bullet
Год выпуска: 1985
Жанр: Ужасы, Фэнтези, Триллер
Описание фильма: Маленький американский городок охвачен страхом: по ночам при полной луне кто-то зверски убивает его жителей. Кто-то покрытый шерстью, таинственный и неуловимый. Добровольцы, отправившиеся на поиски убийцы, сами становятся его жертвами. Лишь тринадцатилетний Марти, прикованный к инвалидной коляске, убежден, что убийства совершает оборотень, против которого бессильно любое оружие, кроме серебряной пули…
Режиссер: Дэниел Эттайес /Daniel Attias/
Актеры: Кори Хэйм /Corey Haim/, Меган Фоллоуз /Megan Follows/, Эверетт МакГилл /Everett McGill/, Гэри Бьюзи /Gary Busey/, Робин Гроувс /Robin Groves/
Продолжительность: 01:29:47
Перевод: Двухголосный закадровый
Видеокодек: XviD
Битрейт видео: 1291 Кбит/сек
Размер кадра: 720х320
Качество видео: DVDRip
Аудиокодек: AC-3
Битрейт аудио: 448 Кбит/сек

Media info:

Формат : AVI
Формат/Информация : Audio Video Interleave
Размер файла : 1,37 Гбайт
Продолжительность : 1 ч. 29 м.
Общий поток : 2196 Кбит/сек
Режиссёр : vicpryl
Программа кодирования : VirtualDubMod 1.5.10.2 (build 2542/release)
Примечание : Serebrjanaja.pulja.RUS.ENG.DVDRip.vicpryl.avi
Видео
Идентификатор : 0
Формат : MPEG-4 Visual
Профиль формата : Advanced [email protected]
Параметр BVOP формата : 1
Параметр QPel формата : Нет
Параметр GMC формата : Без точки перехода
Параметр матрицы формата : Выборочная
Идентификатор кодека : XVID
Идентификатор кодека/Подсказка : XviD
Продолжительность : 1 ч. 29 м.
Битрейт : 1291 Кбит/сек
Ширина : 720 пикселей
Высота : 320 пикселей
Соотношение сторон : 2,25:1
Частота кадров : 25,000 кадров/сек
Цветовое пространство : YUV
Субдискретизация насыщенности : 4:2:0
Битовая глубина : 8 бит
Тип развёртки : Прогрессивная
Метод сжатия : С потерями
Бит/(Пиксели*Кадры) : 0.224
Размер потока : 823 Мбайт (59%)
Библиотека кодирования : XviD 1.1.2 (UTC 2006-11-01)
Аудио #1
Идентификатор : 1
Формат : AC-3
Формат/Информация : Audio Coding 3
Расширение режима : CM (complete main)
Параметр Endianness формата : Big
Идентификатор кодека : 2000
Продолжительность : 1 ч. 29 м.
Вид битрейта : Постоянный
Битрейт : 448 Кбит/сек
Каналы : 6 каналов
Расположение каналов : Front: L C R, Side: L R, LFE
Частота : 48,0 КГц
Битовая глубина : 16 бит
Метод сжатия : С потерями
Размер потока : 286 Мбайт (20%)
Выравнивание : Разделение по промежуткам
Продолжительность промежутка : 96 мс. (2,40 видеокадра)
Время предзагрузки промежутка : 96 мс.
Аудио #2
Идентификатор : 2
Формат : AC-3
Формат/Информация : Audio Coding 3
Расширение режима : CM (complete main)
Параметр Endianness формата : Big
Идентификатор кодека : 2000
Продолжительность : 1 ч. 29 м.
Вид битрейта : Постоянный
Битрейт : 448 Кбит/сек
Каналы : 6 каналов
Расположение каналов : Front: L C R, Side: L R, LFE
Частота : 48,0 КГц
Битовая глубина : 16 бит
Метод сжатия : С потерями
Размер потока : 286 Мбайт (20%)
Выравнивание : Разделение по промежуткам
Продолжительность промежутка : 96 мс. (2,40 видеокадра)
Время предзагрузки промежутка : 96 мс.
Скриншоты:

Время раздачи: с 8:00 до 24:00

Стивен Кинг - Максимальное ускорение/Maximum Overdrive. 1986 год.

Русское название: Максимальное ускорение
Оригинальное название: Maximum Overdrive
Год выпуска: 1986
Жанр: Ужасы, Фэнтези, Триллер
Описание фильма: Когда комета Ри-М проходит через орбиту Земли и задевает ее своим хвостом, происходит глобальная катастрофа. Перестают качать насосы, выходят из строя компьютеры, электрические ножи режут домохозяек, а газонокосилки косят людей, как траву. Внезапно ожившие машины из лучших друзей человека превращаются в его злейших врагов, жаждущих человеческой крови...
Режиссер: Стивен Кинг /Stephen King/
Актеры: Эмилио Эстевес /Emilio Estevez/, Пэт Хингл /Pat Hingle/, Лора Хэррингтон /Laura Harrington/, Йердли Смит /Yeardley Smith/, Джон Шорт /John Short/
Продолжительность: 01:33:37
Перевод: Профессиональный многоголосный
Видеокодек: XviD
Битрейт видео: 2063 Кбит/сек
Размер кадра: 1020х434
Качество видео: DVDRip
Аудиокодек: AC-3
Битрейт аудио: 448 Кбит/сек

Media info:

Формат : AVI
Формат/Информация : Audio Video Interleave
Размер файла : 1,65 Гбайт
Продолжительность : 1 ч. 33 м.
Общий поток : 2521 Кбит/сек
Программа кодирования : VirtualDubModRus 1.5.10.2 (build 2542/release)
Библиотека кодирования : VirtualDubMod build 2542/release
Видео
Идентификатор : 0
Формат : MPEG-4 Visual
Профиль формата : Advanced [email protected]
Параметр BVOP формата : 1
Параметр QPel формата : Нет
Параметр GMC формата : Без точки перехода
Параметр матрицы формата : Выборочная
Идентификатор кодека : XVID
Идентификатор кодека/Подсказка : XviD
Продолжительность : 1 ч. 33 м.
Битрейт : 2063 Кбит/сек
Ширина : 1020 пикселей
Высота : 434 пикселя
Соотношение сторон : 5:4
Соотношение сторон в оригинале : 2,35:1
Частота кадров : 25,000 кадров/сек
Цветовое пространство : YUV
Субдискретизация насыщенности : 4:2:0
Битовая глубина : 8 бит
Тип развёртки : Прогрессивная
Метод сжатия : С потерями
Бит/(Пиксели*Кадры) : 0.186
Размер потока : 1,35 Гбайт (82%)
Библиотека кодирования : XviD 1.1.2 (UTC 2006-11-01)
Аудио
Идентификатор : 1
Формат : AC-3
Формат/Информация : Audio Coding 3
Расширение режима : CM (complete main)
Параметр Endianness формата : Big
Идентификатор кодека : 2000
Продолжительность : 1 ч. 33 м.
Вид битрейта : Постоянный
Битрейт : 448 Кбит/сек
Каналы : 6 каналов
Расположение каналов : Front: L C R, Side: L R, LFE
Частота : 48,0 КГц
Битовая глубина : 16 бит
Метод сжатия : С потерями
Размер потока : 300 Мбайт (18%)
Выравнивание : Соединение по промежуткам
Продолжительность промежутка : 40 мс. (1,00 видеокадр)
Время предзагрузки промежутка : 512 мс.
Скриншоты:

Время раздачи: с 8:00 до 24:00

Стивен Кинг - Будь со мной/Stand by Me. 1986 год

Русское название: Будь со мной
Оригинальное название: Stand by Me
Год выпуска: 1986
Жанр: Ужасы, Фэнтези, Триллер
Описание фильма: 12-летний Горди вместе со своими закадычными друзьями Крисом, Тедди и Верном, дабы прославиться, отправляется на поиски тела мальчика, который, по слухам, попал под поезд. Несмотря на то, что, с точки зрения взрослых, этот поход не содержит в себе ничего особенного, для ребят он становится важным рубежом на пути ко взрослению. Череда забавных и не слишком забавных происшествий становится своеобразным экзаменом, который невозможно сдать, сидя за партой.
Режиссер: Роб Райнер /Rob Reiner/
Актеры: Уил Уитон /Wil Wheaton/, Ривер Феникс /River Phoenix/, Кори Фелдмэн /Corey Feldman/, Джерри О'Коннелл /Jerry O'Connell/, Кифер Сазерлэнд /Kiefer Sutherland/
Продолжительность: 01:28:00
Перевод: Профессиональный многоголосный
Видеокодек: XviD
Битрейт видео: 2033 Кбит/сек
Размер кадра: 720х384
Качество видео: DVDRip
Аудиокодек: AC-3
Битрейт аудио: 128 Кбит/сек

Media info:

Формат : AVI
Формат/Информация : Audio Video Interleave
Размер файла : 1,47 Гбайт
Продолжительность : 1 ч. 28 м.
Общий поток : 2371 Кбит/сек
Режиссёр : sergeide
Программа кодирования : VirtualDubMod 1.5.4.1 (build 2178/release)
Видео
Идентификатор : 0
Формат : MPEG-4 Visual
Профиль формата : Advanced [email protected]
Параметр BVOP формата : 1
Параметр QPel формата : Нет
Параметр GMC формата : Без точки перехода
Параметр матрицы формата : Default (H.263)
Идентификатор кодека : XVID
Идентификатор кодека/Подсказка : XviD
Продолжительность : 1 ч. 28 м.
Битрейт : 2033 Кбит/сек
Ширина : 720 пикселей
Высота : 384 пикселя
Соотношение сторон : 1,976
Частота кадров : 29,970 кадров/сек
Цветовое пространство : YUV
Субдискретизация насыщенности : 4:2:0
Битовая глубина : 8 бит
Тип развёртки : Прогрессивная
Метод сжатия : С потерями
Бит/(Пиксели*Кадры) : 0.245
Размер потока : 1,26 Гбайт (86%)
Библиотека кодирования : XviD 1.2.0.dev47 (UTC 2006-11-01)
Аудио #1
Идентификатор : 1
Формат : AC-3
Формат/Информация : Audio Coding 3
Расширение режима : CM (complete main)
Параметр Endianness формата : Big
Идентификатор кодека : 2000
Продолжительность : 1 ч. 28 м.
Вид битрейта : Постоянный
Битрейт : 128 Кбит/сек
Каналы : 2 канала
Расположение каналов : Front: L R
Частота : 48,0 КГц
Битовая глубина : 16 бит
Метод сжатия : С потерями
Размер потока : 81,0 Мбайт (5%)
Выравнивание : Разделение по промежуткам
Продолжительность промежутка : 33 мс. (1,00 видеокадр)
Время предзагрузки промежутка : 500 мс.
Аудио #2
Идентификатор : 2
Формат : AC-3
Формат/Информация : Audio Coding 3
Расширение режима : CM (complete main)
Параметр Endianness формата : Big
Идентификатор кодека : 2000
Продолжительность : 1 ч. 28 м.
Вид битрейта : Постоянный
Битрейт : 192 Кбит/сек
Каналы : 2 канала
Расположение каналов : Front: L R
Частота : 48,0 КГц
Битовая глубина : 16 бит
Метод сжатия : С потерями
Размер потока : 122 Мбайт (8%)
Выравнивание : Разделение по промежуткам
Продолжительность промежутка : 33 мс. (1,00 видеокадр)
Время предзагрузки промежутка : 500 мс.
Скриншоты:

Время раздачи: с 8:00 до 24:00

Стивен Кинг - Калейдоскоп Ужасов 2 / Creepshow 2 . 1987 год

Русское название: Калейдоскоп Ужасов 2
Оригинальное название: Creepshow 2
Год выпуска: 1987
Жанр: Ужасы, Фэнтези, Триллер
Описание фильма: Несколько жутковатых, но не лишенных юмора новелл. В первой, Вы увидите двойное убийство. Индеец оживает и вылезает из могилы, чтобы отомстить... Во второй Джордж Кеннеди и Дороти Ламур сыграли беспомощных жертв во время ограбления. Новелла "Плот" рассказывает о четырех друзьях, попавших в ловушку на платформе посередине небольшого озера. Их сжирает нечто... В "Попутчике" рассказывается, как ночью девушка Лоис Чайлз сбивает голосовавшего на дороге парня, а он потом весь в крови преследует ее очень резво для мертвеца...
Режиссер: Майкл Горник /Michael Gornick/
Актеры: Лоис Чайлз /Lois Chiles/, Джордж Кеннеди /George Kennedy/, Дороти Ламур /Dorothy Lamour/, Том Савини /Tom Savini/, Доменик Джон /Domenick John/
Продолжительность: 01:25:12
Перевод: Профессиональный многоголосный
Видеокодек: XviD
Битрейт видео: 1008 Кбит/сек
Размер кадра: 512х384
Качество видео: DVDRip
Аудиокодек: MP3
Битрейт аудио: 128 Кбит/сек

Media info:

Формат : AVI
Формат/Информация : Audio Video Interleave
Размер файла : 701 Мбайт
Продолжительность : 1 ч. 25 м.
Общий поток : 1146 Кбит/сек
Программа кодирования : VirtualDubMod 1.5.10.2 (build 2540/release)
Библиотека кодирования : VirtualDubMod build 2540/release
Видео
Идентификатор : 0
Формат : MPEG-4 Visual
Профиль формата : Advanced [email protected]
Параметр BVOP формата : 1
Параметр QPel формата : Нет
Параметр GMC формата : Без точки перехода
Параметр матрицы формата : Выборочная
Идентификатор кодека : XVID
Идентификатор кодека/Подсказка : XviD
Продолжительность : 1 ч. 25 м.
Битрейт : 1008 Кбит/сек
Ширина : 512 пикселей
Высота : 384 пикселя
Соотношение сторон : 4:3
Частота кадров : 25,000 кадров/сек
Цветовое пространство : YUV
Субдискретизация насыщенности : 4:2:0
Битовая глубина : 8 бит
Тип развёртки : Прогрессивная
Метод сжатия : С потерями
Бит/(Пиксели*Кадры) : 0.205
Размер потока : 617 Мбайт (88%)
Библиотека кодирования : XviD 1.1.0 (UTC 2005-11-22)
Аудио
Идентификатор : 1
Формат : MPEG Audio
Версия формата : Version 1
Профиль формата : Layer 3
Режим : Joint stereo
Расширение режима : MS Stereo
Идентификатор кодека : 55
Идентификатор кодека/Подсказка : MP3
Продолжительность : 1 ч. 25 м.
Вид битрейта : Постоянный
Битрейт : 128 Кбит/сек
Каналы : 2 канала
Частота : 48,0 КГц
Метод сжатия : С потерями
Размер потока : 78,4 Мбайт (11%)
Выравнивание : Соединение по промежуткам
Продолжительность промежутка : 40 мс. (1,00 видеокадр)
Время предзагрузки промежутка : 504 мс.
Язык : English
Скриншоты:

Время раздачи: с 8:00 до 24:00

Стивен Кинг - Бегущий человек/The Running Man. 1987 год

Русское название: Бегущий человек
Оригинальное название: The Running Man
Год выпуска: 1987
Жанр: Ужасы, Фэнтези, Триллер
Описание фильма: К 2017 году излюбленным развлечением для жителей Америки, превратившейся в полувоенное государство, стало садиское телешоу "Бегущий человек", участники которого - невинные жертвы - не имели ни единого шанса на выживание. Среди них оказался полицейский Бэн Ричардс, отказавшийся расстрелять безоружную толпу голодных людей. Теперь вместе с собратьями по несчастью ему предстоит принять участие в безумной гонке со смертью, сразиться с непобедимыми монстрами - Профессором Крио, Бензопилой, Шаровой Молнией и Динамо, и отомстить бесчеловечному хозяину шоу...
Режиссер: Пол Майкл Глэйзер /Paul Michael Glaser/
Актеры: Арнольд Шварценеггер /Arnold Schwarzenegger/, Мария Кончита Алонсо /Maria Conchita Alonso/, Яфет Котто /Yaphet Kotto/, Джим Браун /Jim Brown/
Продолжительность: 01:40:26
Перевод: Профессиональный многоголосный
Видеокодек: DivX
Битрейт видео: 1486 Кбит/сек
Размер кадра: 672х368
Качество видео: DVDRip
Аудиокодек: AC-3
Битрейт аудио: 448 Кбит/сек

Media info:

Формат : AVI
Формат/Информация : Audio Video Interleave
Размер файла : 1,37 Гбайт
Продолжительность : 1 ч. 40 м.
Общий поток : 1942 Кбит/сек
Программа кодирования : VirtualDubModRus 1.5.10.2 (build 2540/release)
Библиотека кодирования : VirtualDubMod build 2540/release
Видео
Идентификатор : 0
Формат : MPEG-4 Visual
Параметр BVOP формата : 1
Параметр QPel формата : Нет
Параметр GMC формата : Без точки перехода
Параметр матрицы формата : Default (H.263)
Режим смешивания : Сжатый битовый поток
Идентификатор кодека : DX50
Идентификатор кодека/Подсказка : DivX 5
Продолжительность : 1 ч. 40 м.
Битрейт : 1486 Кбит/сек
Ширина : 672 пикселя
Высота : 368 пикселей
Соотношение сторон : 1,85:1
Частота кадров : 23,976 кадра/сек
Цветовое пространство : YUV
Субдискретизация насыщенности : 4:2:0
Битовая глубина : 8 бит
Тип развёртки : Прогрессивная
Метод сжатия : С потерями
Бит/(Пиксели*Кадры) : 0.251
Размер потока : 1,05 Гбайт (77%)
Библиотека кодирования : DivX 6.1.1 (UTC 2006-02-01)
Аудио
Идентификатор : 1
Формат : AC-3
Формат/Информация : Audio Coding 3
Расширение режима : CM (complete main)
Параметр Endianness формата : Big
Идентификатор кодека : 2000
Продолжительность : 1 ч. 40 м.
Вид битрейта : Постоянный
Битрейт : 448 Кбит/сек
Каналы : 6 каналов
Расположение каналов : Front: L C R, Side: L R, LFE
Частота : 48,0 КГц
Битовая глубина : 16 бит
Метод сжатия : С потерями
Размер потока : 323 Мбайт (23%)
Выравнивание : Разделение по промежуткам
Продолжительность промежутка : 64 мс. (1,53 видеокадра)
Время предзагрузки промежутка : 64 мс.
Скриншоты:

Время раздачи: с 8:00 до 24:00

Стивен Кинг - Кладбище домашних животных/Pet Sematary. 1989 год

Русское название: Кладбище домашних животных
Оригинальное название: Pet Sematary
Год выпуска: 1989
Жанр: Ужасы, Фэнтези, Триллер
Описание фильма: Доктор Луис Крид переезжает в маленький городишко, где его семью ждёт большой дом, а самого Луиса - скромная должность лечащего врача местного колледжа. Новая просторная обитель четы Кридов находится на краю густого, величественного леса. А в самом лесу расположено маленькое и мрачное кладбище. Здесь окрестные жители хоронят своих домашних животных. И несчастье приходит в дом Кридов: кот Чёрч, домашний любимец, по нелепой случайности попадает под колёса грузовика. Гибель Чёрча повергла семью доктора в шок, и Луис решается на отчаянный шаг. Он хоронит кота на заброшенном и очень старом индейском кладбище, обладающем, по легендам, таинственной, воскрешающей силой. И вот, однажды ночью, погибший кот возвращается.
Режиссер: Мэри Лэмберт /Mary Lambert/
Актеры: Дэйл Мидкифф /Dale Midkiff/, Фред Гуинн /Fred Gwynne/, Дениз Кросби /Denise Crosby/, Брэд Гринквист /Brad Greenquist/, Майко Хьюз /Miko Hughes/
Продолжительность: 01:42:40
Перевод: Профессиоальный многоголосный
Видеокодек: XviD
Битрейт видео: 1311 Кбит/сек
Размер кадра: 704х384
Качество видео: DVDRip
Аудио #1
Аудиокодек: AC-3
Битрейт аудио: 384 Кбит/сек
Аудио #2
Аудиокодек: MP3
Битрейт аудио: 192 Кбит/сек

Media info:

Формат : AVI
Формат/Информация : Audio Video Interleave
Размер файла : 1,36 Гбайт
Продолжительность : 1 ч. 42 м.
Общий поток : 1901 Кбит/сек
Программа кодирования : VirtualDubMod 1.5.10.2 (build 2540/release)
Библиотека кодирования : VirtualDubMod build 2540/release
Видео
Идентификатор : 0
Формат : MPEG-4 Visual
Профиль формата : [email protected]
Параметр BVOP формата : Нет
Параметр QPel формата : Нет
Параметр GMC формата : Без точки перехода
Параметр матрицы формата : Default (H.263)
Идентификатор кодека : XVID
Идентификатор кодека/Подсказка : XviD
Продолжительность : 1 ч. 42 м.
Битрейт : 1311 Кбит/сек
Ширина : 704 пикселя
Высота : 384 пикселя
Соотношение сторон : 1,85:1
Частота кадров : 23,976 кадра/сек
Цветовое пространство : YUV
Субдискретизация насыщенности : 4:2:0
Битовая глубина : 8 бит
Тип развёртки : Прогрессивная
Метод сжатия : С потерями
Бит/(Пиксели*Кадры) : 0.202
Размер потока : 963 Мбайт (69%)
Библиотека кодирования : XviD 1.0.3 (UTC 2004-12-20)
Аудио #1
Идентификатор : 1
Формат : AC-3
Формат/Информация : Audio Coding 3
Расширение режима : CM (complete main)
Параметр Endianness формата : Big
Идентификатор кодека : 2000
Продолжительность : 1 ч. 42 м.
Вид битрейта : Постоянный
Битрейт : 384 Кбит/сек
Каналы : 6 каналов
Расположение каналов : Front: L C R, Side: L R, LFE
Частота : 48,0 КГц
Битовая глубина : 16 бит
Метод сжатия : С потерями
Размер потока : 282 Мбайт (20%)
Выравнивание : Разделение по промежуткам
Продолжительность промежутка : 42 мс. (1,00 видеокадр)
Время предзагрузки промежутка : 500 мс.
Аудио #2
Идентификатор : 2
Формат : MPEG Audio
Версия формата : Version 1
Профиль формата : Layer 3
Режим : Joint stereo
Расширение режима : MS Stereo
Идентификатор кодека : 55
Идентификатор кодека/Подсказка : MP3
Продолжительность : 1 ч. 42 м.
Вид битрейта : Постоянный
Битрейт : 192 Кбит/сек
Каналы : 2 канала
Частота : 48,0 КГц
Метод сжатия : С потерями
Размер потока : 141 Мбайт (10%)
Выравнивание : Соединение по промежуткам
Продолжительность промежутка : 42 мс. (1,00 видеокадр)
Время предзагрузки промежутка : 504 мс.
Скриншоты:

Время раздачи: с 8:00 до 24:00

Стивен Кинг - Ночная смена/Graveyard Shift. 1990 год

Русское название: Ночная смена
Оригинальное название: Graveyard Shift
Год выпуска: 1990
Жанр: Ужасы, Фэнтези, Триллер
Описание фильма: Гейтсхолл - маленький заброшенный американский городишко. Расположенная неподалеку от кладбища и пришедшая со временем в упадок ткацкая фабрика стала прибежищем полчища крыс.
Группа рабочих спускается в подвал, чтобы расчистить его. В результате аварии они оказываются в западне - в царстве страха и ужаса.
Режиссер: Ральф Синглтон /Ralph S. Singleton
Актеры: Дэвид Эндрюс /David Andrews/, Келли Вольф /Kelly Wolf/, Стивен Мачт /Stephen Macht/ , Эндрю Дивоф /Andrew Divoff/, Вик Полизос /Vic Polizos/, Брэд Дориф /Brad Dourif/, Роберт Алан Бьют /Robert Alan Beuth/, Илона Марголис /Ilona Margolis/, Джимми Вудард /Jimmy Woodard
Продолжительность: 01:26:07
Перевод: Одноголосный закадровый
Видеокодек: XviD
Битрейт видео: 997 Кбит/сек
Размер кадра: 672х368
Качество видео: DVDRip
Аудиокодек: MP3
Битрейт аудио: 128 Кбит/сек

Media info:

Формат : AVI
Формат/Информация : Audio Video Interleave
Размер файла : 700 Мбайт
Продолжительность : 1 ч. 26 м.
Общий поток : 1135 Кбит/сек
Программа кодирования : VirtualDubMod 1.5.10.1 (build 2439/release)
Библиотека кодирования : VirtualDubMod build 2439/release
Видео
Идентификатор : 0
Формат : MPEG-4 Visual
Параметр BVOP формата : 1
Параметр QPel формата : Нет
Параметр GMC формата : Без точки перехода
Параметр матрицы формата : Default (H.263)
Режим смешивания : Сжатый битовый поток
Идентификатор кодека : DX50
Идентификатор кодека/Подсказка : DivX 5
Продолжительность : 1 ч. 26 м.
Битрейт : 997 Кбит/сек
Ширина : 672 пикселя
Высота : 368 пикселей
Соотношение сторон : 1,85:1
Частота кадров : 23,976 кадра/сек
Цветовое пространство : YUV
Субдискретизация насыщенности : 4:2:0
Битовая глубина : 8 бит
Тип развёртки : Прогрессивная
Метод сжатия : С потерями
Бит/(Пиксели*Кадры) : 0.168
Размер потока : 616 Мбайт (88%)
Библиотека кодирования : DivX 5.0.5 (UTC 2003-04-24)
Аудио
Идентификатор : 1
Формат : MPEG Audio
Версия формата : Version 1
Профиль формата : Layer 3
Режим : Joint stereo
Расширение режима : MS Stereo
Идентификатор кодека : 55
Идентификатор кодека/Подсказка : MP3
Продолжительность : 1 ч. 26 м.
Вид битрейта : Постоянный
Битрейт : 128 Кбит/сек
Каналы : 2 канала
Частота : 44,1 КГц
Метод сжатия : С потерями
Размер потока : 79,0 Мбайт (11%)
Выравнивание : Разделение по промежуткам
Продолжительность промежутка : 42 мс. (1,00 видеокадр)
Время предзагрузки промежутка : 500 мс.
Скриншоты:

Время раздачи: с 8:00 до 24:00

Стивен Кинг - Оно/It. 1990 год

Русское название: Оно
Оригинальное название: It
Год выпуска: 1990
Жанр: Ужасы, Фэнтези, Триллер
Описание фильма: Оно пожирает маленьких детей, затаскивает их под землю. Оно является детям в виде страшного, зубастого клоуна с воздушными шариками. Но семеро детей маленького городка объединяются и дают отпор чудовищу, меняющему свой облик. Кошмар возвращается через несколько лет, и им всем приходится снова собраться вместе - Оно вернулось. Только вместе можно побороть свой страх и дать отпор хулиганам - только вместе можно побороть ОНО, ибо питается ОНО всем тем плохим и гадким, что затаилось в них...
Режиссер: Томми Ли Уоллес /Tommy Lee Wallace/
Актеры: Джон Риттер /John Ritter/, Гарри Андерсон /Harry Anderson/, Тим Карри /Tim Curry/, Оливия Хасси /Olivia Hussey/, Аннетт О'Тул /Annette O'Toole/
Продолжительность: 03:07:22
Перевод: Профессиоальный многоголосный
Видеокодек: XviD
Битрейт видео: 828 Кбит/сек
Размер кадра: 544х304
Качество видео: DVDRip
Аудиокодек: AC-3
Битрейт аудио: 192 Кбит/сек

Media info:

Формат : AVI
Формат/Информация : Audio Video Interleave
Размер файла : 1,35 Гбайт
Продолжительность : 3 ч. 7 м.
Общий поток : 1030 Кбит/сек
Программа кодирования : VirtualDubMod 1.5.10.1 (build 2439/release)
Библиотека кодирования : VirtualDubMod build 2439/release
Видео
Идентификатор : 0
Формат : MPEG-4 Visual
Параметр BVOP формата : Да
Параметр QPel формата : Нет
Параметр GMC формата : Без точки перехода
Параметр матрицы формата : Default (MPEG)
Идентификатор кодека : XVID
Идентификатор кодека/Подсказка : XviD
Продолжительность : 3 ч. 7 м.
Битрейт : 828 Кбит/сек
Ширина : 544 пикселя
Высота : 304 пикселя
Соотношение сторон : 16:9
Частота кадров : 23,976 кадра/сек
Цветовое пространство : YUV
Субдискретизация насыщенности : 4:2:0
Битовая глубина : 8 бит
Тип развёртки : Прогрессивная
Метод сжатия : С потерями
Бит/(Пиксели*Кадры) : 0.209
Размер потока : 1,08 Гбайт (80%)
Аудио
Идентификатор : 1
Формат : AC-3
Формат/Информация : Audio Coding 3
Расширение режима : CM (complete main)
Параметр Endianness формата : Big
Идентификатор кодека : 2000
Продолжительность : 3 ч. 7 м.
Вид битрейта : Постоянный
Битрейт : 192 Кбит/сек
Каналы : 2 канала
Расположение каналов : Front: L R
Частота : 48,0 КГц
Битовая глубина : 16 бит
Метод сжатия : С потерями
Размер потока : 257 Мбайт (19%)
Выравнивание : Разделение по промежуткам
Продолжительность промежутка : 42 мс. (1,00 видеокадр)
Время предзагрузки промежутка : 500 мс.
Скриншоты:

Время раздачи: с 8:00 до 24:00

Стивен Кинг - Мизери/Misery. 1990 год

Русское название: Мизери
Оригинальное название: Misery
Год выпуска: 1990
Жанр: Ужасы, Фэнтези, Триллер
Описание фильма: Писатель Пол Шелтон не помнит сильного снегопада из-за которого он разбился на своей машине где-то в горах. Он также не помнит как его нашла и спасла от неминуемой смерти молодая девушка. Все что он помнит – это лишь то, как он проснулся в доме Анни Вилкс – ярой поклонницы его романов. Не желая расставаться со своим любимым автором, она ломает ему ноги – чтобы никуда он не убежал и заставляет Пола создать новую книгу, делая его таким образом своим собственным "ручным" писателем. Проклиная своих школьных чителей, которые научили его писать, он пытется вновь обрести свободу, убежав из дома Анни. Но из цепких рук жестокой маниакальной фанатички не так то легко вырваться…
Режиссер: Роб Райнер /Rob Reiner/
Актеры: Джеймс Каан /James Caan/, Кэти Бэйтс /Kathy Bates/, Фрэнсис Стернхэйген /Frances Sternhagen/, Ричард Фарнсуорт /Richard Farnsworth/, Лорен Бэколл /Lauren Bacall/
Продолжительность: 01:43:19
Перевод: Профессиоальный многоголосный
Видеокодек: XviD
Битрейт видео: 839 Кбит/сек
Размер кадра: 576х304
Качество видео: DVDRip
Аудиокодек: MP3
Битрейт аудио: 96,0 Кбит/сек

Media info:

Формат : AVI
Формат/Информация : Audio Video Interleave
Размер файла : 697 Мбайт
Продолжительность : 1 ч. 43 м.
Общий поток : 944 Кбит/сек
Программа кодирования : VirtualDubMod 1.5.10.2 (build 2540/release)
Библиотека кодирования : VirtualDubMod build 2540/release
Видео
Идентификатор : 0
Формат : MPEG-4 Visual
Параметр BVOP формата : 1
Параметр QPel формата : Нет
Параметр GMC формата : 2 точки перехода
Параметр матрицы формата : Default (H.263)
Режим смешивания : Сжатый битовый поток
Идентификатор кодека : DX50
Идентификатор кодека/Подсказка : DivX 5
Продолжительность : 1 ч. 43 м.
Битрейт : 839 Кбит/сек
Ширина : 576 пикселей
Высота : 304 пикселя
Соотношение сторон : 1,895
Частота кадров : 25,000 кадров/сек
Цветовое пространство : YUV
Субдискретизация насыщенности : 4:2:0
Битовая глубина : 8 бит
Тип развёртки : Прогрессивная
Метод сжатия : С потерями
Бит/(Пиксели*Кадры) : 0.192
Размер потока : 619 Мбайт (89%)
Библиотека кодирования : DivX 5.0.2 (UTC 2002-05-16)
Аудио
Идентификатор : 1
Формат : MPEG Audio
Версия формата : Version 1
Профиль формата : Layer 3
Режим : Joint stereo
Расширение режима : Intensity Stereo + MS Stereo
Идентификатор кодека : 55
Идентификатор кодека/Подсказка : MP3
Продолжительность : 1 ч. 43 м.
Вид битрейта : Постоянный
Битрейт : 96,0 Кбит/сек
Каналы : 2 канала
Частота : 44,1 КГц
Метод сжатия : С потерями
Размер потока : 70,9 Мбайт (10%)
Выравнивание : Разделение по промежуткам
Продолжительность промежутка : 40 мс. (1,00 видеокадр)
Время предзагрузки промежутка : 500 мс.
Скриншоты:
Вне форума [Профиль] [ЛС]
Похожие темы
Форум Тема Автор Торрент Отв. Посл. сообщение
./templates/default/images/folder_dl.gif Фантастика, фэнтези, ужасы, мистика Кинг Стивен – 11/22/63 [Князев Игорь (ЛИ), 2013 г., 160 kbps, MP3] Omen
1 | 0

0 | 332

3

2013-03-29 13:44
Omen Последнее
./templates/default/images/folder_dl.gif Фильмы 2001-2010 Я плюю на ваши могилы / I Spit on Your Grave (Стивен Р. Монро) [2010 г., криминал, триллер, ужасы, BDRip1080p] Владимирский
1 | 0

1 | 495

1

2015-07-21 05:03
Dracula Последнее
./templates/default/images/folder_dl.gif Психология, Тренинг, Саморазвитие Стивен Р. Кови | Семь навыков высокоэффективных людей. Мощные инструменты развития личности [+ Буклет] (2012) [MP3, PDF] Omen
0 | 1

0 | 344

4

2015-10-11 23:23
Omen Последнее
./templates/default/images/folder_dl.gif Книги для IPhone, IPod, Apple Кинг Стивен, Страуб Питер - Талисман [Воротилин Олег (ЛИ), 2016, Фэнтези, 128 kbps], M4B VHS
1 | 0

0 | 187

2

2016-03-27 19:57
VHS Последнее
./templates/default/images/folder_dl.gif Книги для IPhone, IPod, Apple Бахман Ричард \ Кинг Стивен - Регуляторы [vaska hulya (ЛИ), 2016, Триллер,мистика, 128 kbps], M4B VHS
1 | 0

0 | 259

1

2016-04-05 22:47
VHS Последнее
./templates/default/images/folder_dl.gif Книги для IPhone, IPod, Apple Кинг Стивен - Тёмная башня - V: Волки Кальи [Волков Роман, Булдаков Олег, Волкова Ирина, Князев Игорь, Digig, Петров Никита, BigBag, 2016, Фантастика, фэнтези, мистика, 192 kbps], M4B VHS
1 | 0

0 | 175

1

2016-09-02 18:56
VHS Последнее
./templates/default/images/folder_dl.gif Книги для IPhone, IPod, Apple Кинг Стивен - Противостояние [Булдаков Олег, 2016, Фантастика, мистика, 192 kbps], M4B VHS
1 | 0

1 | 243

2

2016-09-28 20:02
VHS Последнее
Показать сообщения:    
Ответить на тему

Текущее время: Сегодня 09:46

Часовой пояс: GMT + 3



Вы не можете начинать темы
Вы не можете отвечать на сообщения
Вы не можете редактировать свои сообщения
Вы не можете удалять свои сообщения
Вы не можете голосовать в опросах
Вы не можете прикреплять файлы к сообщениям
Вы не можете скачивать файлы