Сегодня идет свободное скачивание без начисления Download

Банковский билет в миллион фунтов стерлингов / The Million Pound Note (1954) [H.264] DVDRip

Ответить на тему
 
Автор
Сообщение

Omen ®

Стаж: 4 года 1 месяц

Сообщений: 194394

Торрент-статистика

Пост 09-Янв-2013 04:44

[Цитировать]

-Банковский билет в миллион фунтов стерлингов / The Million Pound Note (1954) [H.264] DVDRip-«Great fun... you can bank on it!»- Русское название: Банковский билет в миллион фунтов стерлингов
Оригинальное название: The Million Pound Note
Год выпуска: 1954
Жанр: Мелодрама, Комедия
Страна: Великобритания
Производство: Group Film Productions Limited
Описание фильма:
Два эксцентричных брата-миллионера заключают между собой пари. Они оформляют банковский билет на миллион фунтов стерлингов и вручают его американцу Генри Адамсу, оказавшемуся в Англии без гроша в кармане.
По условиям пари, Генри должен прожить целый месяц в кредит по билету, не разменивая его, и в случае успеха получить солидное вознаграждение.
Фильм снят по мотивам рассказа Марка Твена.
Режиссер: Роналд Ним
Сценарий: Марк Твен, Джилл Крейги
Актеры: Грегори Пек, Рональд Сквайр, Джойс Гринфел, А.Э. Мэтьюз, Морис Денэм, Реджинальд Бекуив, Брайан Аултон, Джон Слэйтер, Вилбур Эванс, Хартли Пауэр, Джордж Дивайн, Брайан Форбс, Гудрун Уре, Хью Уэйкфилд, Уилфрид Хайд-Уайт, Джейн Гриффитс
Роли дублировали: Марк Бернес, Алексей Добронравов, Алексей Кельберер, Антонина Кончакова,Борис Кордунов, Виктор Файнлейб, Геннадий Юдин, Константин Барташевич, Мария Виноградова,Михаил Глузский, Нина Агапова, Олег Мокшанцев
Продолжительность: 01:24:41
Перевод: Дублированный (Мосфильм, 1960 г.)
Субтитры: Отсутствуют

Дата мировой премьеры: 7 января 1954
Видеокодек: MPEG-4 AVC/H.264
Битрейт видео: ~2499 Кбит/сек
Размер кадра: 720x544
Качество видео: DVDRip
Аудиокодек: AC3 2.0
Битрейт аудио: 192 kbps

Реценция с кинопоиска от IW-GDK:

— Сделайте мне честь, сэр, примерьте вот эту рубашку и этот костюм, — вот именно, это как раз то, что нужно: просто, богато, скромно и благородно, как на герцоге; ведь это сделано на заказ для одного иностранного принца. Он вернул этот костюм и заказал нам траур, потому что матушка у него собралась было умирать, а потом раздумала. Ну и что же из этого, не всегда бывает так, как нам… то есть так, как им… (М. Твен)
Отличная экранизация одноименного рассказа Марка Твена и мировая классика комедии. Превосходная игра Грегори Пека сыгравшего Генри Адамса, американца волею судьбы оказавшегося в Англии без средств к существованию. И ставшего пассивным участником в одном преинтереснейшем пари, которое заключили между собой два пожилых джентльмена. Суть спора — сможет ли честный и неглупый иностранец, имея в наличии только банковский билет на миллион фунтов прожить месяц, не разменивая его.
Приключения героя начинают разворачиваться со стремительной быстротой — все в городе начинают выражать свое глубокое почтение перед «эксцентричными миллионером» одетым в лохмотья. Ему ссужают деньги в залог на «неопределенное» время, хотя еще вчера и пенса бы дали. Приглашают на званые обеды, а его именем пестрят заголовки газет.
После просмотра есть резон прочитать рассказ, чтобы обнаружить в финале одну интересную деталь, которую в фильме не показали. И насладиться сатирой выдающегося американского писателя, выставляющего не в радужном свете жизнь верхушки общества, где царит алчность и преклонение перед деньгами. На страницах рассказа обыгрываются английские традиции, к примеру англичане перед светским обедом наедаются дома, так как из-за церемоний по расположению за обеденным столом может быть сломано не мало копий. И в конечном счете все закончится фуршетом из сардинок и клубники, причем некоторые даже там не оставят страсть к выигрышу, и пары особ высшего ранга бросят монетку, победитель чего первым отправит в рот съестное.
Сюжет С. Л. Клеменса обыгрывался позже и в фильме с Эдди Мерфи (с некоторой модификацией, и переплетением и другого произведения Твена — «Принц и нищий «), где на этот раз чернокожий бродяга получал в ходе спора двух чудаковатых братьев возможность прилично одеться, сыграть на фондовых биржах да понежиться.

MediaInfo:

Общее
Уникальный идентификатор : 234006754151361900983850855121963765183 (0xB00C0FBE85D549FEA55A31858074CDBF)
Полное имя : D:\Downloads\Банковский билет в один миллион фунтов стерлингов.mkv
Формат : Matroska
Версия формата : Version 2
Размер файла : 1,59 Гбайт
Продолжительность : 1 ч. 24 м.
Общий поток : 2692 Кбит/сек
Дата кодирования : UTC 2012-12-02 11:46:20
Программа кодирования : mkvmerge v5.7.0 ('The Whirlwind') built on Jul 29 2012 15:12:35
Библиотека кодирования : libebml v1.2.3 + libmatroska v1.3.0
Видео
Идентификатор : 1
Формат : AVC
Формат/Информация : Advanced Video Codec
Профиль формата : [url=mailto:[email protected]][email protected][/url]
Параметр CABAC формата : Да
Параметр ReFrames формата : 5 кадров
Режим смешивания : Header stripping
Идентификатор кодека : V_MPEG4/ISO/AVC
Продолжительность : 1 ч. 24 м.
Битрейт : 2499 Кбит/сек
Ширина : 720 пикселей
Высота : 544 пикселя
Соотношение сторон : 4:3
Режим частоты кадров : Постоянный
Частота кадров : 25,000 кадров/сек
Цветовое пространство : YUV
Субдискретизация насыщенности : 4:2:0
Битовая глубина : 8 бит
Тип развёртки : Прогрессивная
Бит/(Пиксели*Кадры) : 0.255
Размер потока : 1,45 Гбайт (91%)
Заголовок : The Million Pound Note
Библиотека кодирования : x264 core 125 r2200 999b753
Настройки программы : cabac=1 / ref=5 / deblock=1:-1:-1 / analyse=0x3:0x113 / me=umh / subme=8 / psy=1 / psy_rd=1.00:0.15 / mixed_ref=1 / me_range=16 / chroma_me=1 / trellis=1 / 8x8dct=1 / cqm=0 / deadzone=21,11 / fast_pskip=1 / chroma_qp_offset=-3 / threads=3 / lookahead_threads=1 / sliced_threads=0 / nr=0 / decimate=1 / interlaced=0 / bluray_compat=0 / constrained_intra=0 / bframes=3 / b_pyramid=2 / b_adapt=2 / b_bias=0 / direct=3 / weightb=1 / open_gop=0 / weightp=2 / keyint=250 / keyint_min=25 / scenecut=40 / intra_refresh=0 / rc_lookahead=50 / rc=2pass / mbtree=1 / bitrate=2499 / ratetol=1.0 / qcomp=0.60 / qpmin=0 / qpmax=69 / qpstep=4 / cplxblur=20.0 / qblur=0.5 / ip_ratio=1.40 / aq=1:1.00
Язык : English
Default : Да
Forced : Нет
Аудио
Идентификатор : 2
Формат : AC-3
Формат/Информация : Audio Coding 3
Расширение режима : CM (complete main)
Параметр Endianness формата : Big
Режим смешивания : Header stripping
Идентификатор кодека : A_AC3
Продолжительность : 1 ч. 24 м.
Вид битрейта : Постоянный
Битрейт : 192 Кбит/сек
Каналы : 2 канала
Расположение каналов : Front: L R
Частота : 48,0 КГц
Битовая глубина : 16 бит
Метод сжатия : С потерями
Размер потока : 116 Мбайт (7%)
Заголовок : Дублированный — «Мосфильм», 1960 г.
Язык : Russian
Default : Да
Forced : Нет
Скриншоты:                    Время раздачи: с 12:00 до 24:00 по Москве (выходные круглосуточно), до 10 скачавших
Вне форума [Профиль] [ЛС]
Показать сообщения:    
Ответить на тему

Текущее время: Сегодня 09:43

Часовой пояс: GMT + 3



Вы не можете начинать темы
Вы не можете отвечать на сообщения
Вы не можете редактировать свои сообщения
Вы не можете удалять свои сообщения
Вы не можете голосовать в опросах
Вы не можете прикреплять файлы к сообщениям
Вы не можете скачивать файлы