Сегодня идет свободное скачивание без начисления Download

Стивен Кинг. Коллекция фильмов. Часть 1 / (1976 - 1984) DVDRip

Ответить на тему
 
Автор
Сообщение

Omen ®

Стаж: 4 года 1 месяц

Сообщений: 194394

Торрент-статистика

Пост 09-Янв-2013 04:44

[Цитировать]

-Стивен Кинг. Коллекция фильмов.Часть 1 / (1976 - 1984) DVDRip- Русское название: Стивен Кинг.
Оригинальное название: Коллекция фильмов.
Год выпуска: 1976 - 1984
Жанр: Ужасы, Фэнтези, Триллер
Фильмы отсортированны по году выхода на экран.

Стивен Кинг - Кэрри/Carrie. 1976 год

Русское название: Кэрри
Оригинальное название: Carrie
Год выпуска: 1976
Жанр: Ужасы, Фэнтези, Триллер
Описание фильма: Кэрри Уайт страдает и в школе, и дома. В школе - от насмешек и издевательств одноклассников, видящих в ней гадкого утенка. Дома - от строгостей и фанатизма матери, набожной пуританки. Но обнаружившиеся у нее однажды сверхъестественные способности дают Кэрри возможность отомстить, и она обрушивает на окружающих испепеляющий ад из пламени, крови и колдовства, погружая все в пучину ужаса!
Режиссер: Брайан Де Пальма /Brian De Palma/
Актеры: Сисси Спэйсек /Sissy Spacek/, Джон Траволта /John Travolta/, Пайпер Лори /Piper Laurie/, Уильям Кэтт /William Katt/, Эми Ирвинг /Amy Irving/, Нэнси Аллен /Nancy Allen/.
Продолжительность: 01:38:10
Перевод: Профессиональный многоголосый
Видеокодек: XviD
Битрейт видео: 1795 Кбит
Размер кадра: 720x384
Качество видео: BDRip
Аудиокодек: Audio #1 (RUS): AC3 Dolby Digital
Audio #2 (ENG): AC3 Dolby Digital
Битрейт аудио: 160 Кбит

Media info:

Формат : AVI
Формат/Информация : Audio Video Interleave
Размер файла : 1,46 Гбайт
Продолжительность : 1 ч. 38 м.
Общий поток : 2129 Кбит/сек
Название фильма : Кэрри / Carrie (1976)
Режиссёр : SENATOR (BDRip 720)
Программа кодирования : VirtualDubMod 1.5.10.2 (build 2540/release)
Правообладатель : HQ-ViDEO (www.hq-video.ru)
Примечание : 26.11.2008
Видео
Идентификатор : 0
Формат : MPEG-4 Visual
Профиль формата : Advanced [email protected]
Параметр BVOP формата : 2
Параметр QPel формата : Нет
Параметр GMC формата : Без точки перехода
Параметр матрицы формата : Default (MPEG)
Режим смешивания : Сжатый битовый поток
Идентификатор кодека : XVID
Идентификатор кодека/Подсказка : XviD
Продолжительность : 1 ч. 38 м.
Битрейт : 1795 Кбит/сек
Ширина : 720 пикселей
Высота : 384 пикселя
Соотношение сторон : 1,85:1
Соотношение сторон в оригинале : 1,85:1
Частота кадров : 23,976 кадра/сек
Цветовое пространство : YUV
Субдискретизация насыщенности : 4:2:0
Битовая глубина : 8 бит
Тип развёртки : Прогрессивная
Метод сжатия : С потерями
Бит/(Пиксели*Кадры) : 0.271
Размер потока : 1,23 Гбайт (84%)
Библиотека кодирования : XviD 1.1.2 (UTC 2006-11-01)
Аудио #1
Идентификатор : 1
Формат : AC-3
Формат/Информация : Audio Coding 3
Профиль формата : Dolby Digital
Расширение режима : CM (complete main)
Параметр Endianness формата : Big
Идентификатор кодека : 2000
Продолжительность : 1 ч. 38 м.
Вид битрейта : Постоянный
Битрейт : 160 Кбит/сек
Каналы : 2 канала
Расположение каналов : Front: L R
Частота : 48,0 КГц
Битовая глубина : 16 бит
Метод сжатия : С потерями
Размер потока : 112 Мбайт (8%)
Выравнивание : Разделение по промежуткам
Продолжительность промежутка : 42 мс. (1,00 видеокадр)
Время предзагрузки промежутка : 500 мс.
Аудио #2
Идентификатор : 2
Формат : AC-3
Формат/Информация : Audio Coding 3
Расширение режима : CM (complete main)
Параметр Endianness формата : Big
Идентификатор кодека : 2000
Продолжительность : 1 ч. 38 м.
Вид битрейта : Постоянный
Битрейт : 160 Кбит/сек
Каналы : 2 канала
Расположение каналов : Front: L R
Частота : 48,0 КГц
Битовая глубина : 16 бит
Метод сжатия : С потерями
Размер потока : 112 Мбайт (8%)
Выравнивание : Разделение по промежуткам
Продолжительность промежутка : 42 мс. (1,00 видеокадр)
Время предзагрузки промежутка : 500 мс.
Скриншоты:

Время раздачи: с8:00 до 24:00

Стивен Кинг - Салемские вампиры/Salem's Lot. 1979 год

Русское название: Салемские вампиры
Оригинальное название: Salem's Lot
Год выпуска: 1979
Жанр: Ужасы, Фэнтези, Триллер
Описание фильма: Бен Мейрс, успешный романист, возвращается домой в Салемс лот после многих лет отсутствия. Мейрс видит зловещий дом Марстенов, где у него был неприятный эпизод, когда он был ребенком. Дом теперь был куплен антикварами, Страйкером и его загадочным партнером Барлоу. Когда местные жители начинают исчезать, затем возвращаясь, превратившись в вампиров, Мейрс начинает подозревать, что Барлоу и Страйкер представляют собой совсем не то, чем они кажутся...
Режиссер: Тоуб Хупер /Tobe Hooper/.
Актеры: Барбара Бэбкок /Barbara Babcock/, Бонни Бартлетт /Bonnie Bartlett/, Джошуа Брайант /Joshua Bryant/, Роберт Луссьер /Robert Lussier/, Брэд Сэвидж /Brad Savage/
CD 1:
Продолжительность: 01:29:33
Перевод: Профессиональный многоголосый
Видеокодек: DivX
Битрейт видео: 896 Кбит/сек
Размер кадра: 528x400
Качество видео: DVDRip
Аудиокодек: MP3
Битрейт аудио: 128 Кбит/сек.
CD 2:
Продолжительность: 01:27:03
Перевод: Профессиональный многоголосый
Видеокодек: DivX
Битрейт видео: 977 Кбит/сек
Размер кадра: 640x480
Качество видео: DVDRip
Аудиокодек: MP3
Битрейт аудио: 128 Кбит/сек

Media info CD 1:

Формат : AVI
Формат/Информация : Audio Video Interleave
Размер файла : 670 Мбайт
Продолжительность : 1 ч. 29 м.
Режим общего битрейта : Переменный
Общий поток : 1041 Кбит/сек
Видео
Идентификатор : 0
Формат : MPEG-4 Visual
Параметр BVOP формата : 1
Параметр QPel формата : Нет
Параметр GMC формата : Без точки перехода
Параметр матрицы формата : Default (H.263)
Режим смешивания : Сжатый битовый поток
Идентификатор кодека : DX50
Идентификатор кодека/Подсказка : DivX 5
Продолжительность : 1 ч. 29 м.
Битрейт : 896 Кбит/сек
Ширина : 528 пикселей
Высота : 400 пикселей
Соотношение сторон : 4:3
Частота кадров : 25,000 кадров/сек
Цветовое пространство : YUV
Субдискретизация насыщенности : 4:2:0
Битовая глубина : 8 бит
Тип развёртки : Прогрессивная
Метод сжатия : С потерями
Бит/(Пиксели*Кадры) : 0.170
Размер потока : 576 Мбайт (86%)
Заголовок : Video
Библиотека кодирования : DivX 5.2.1 Alpha (UTC 2004-09-08)
Аудио
Идентификатор : 1
Формат : MPEG Audio
Версия формата : Version 1
Профиль формата : Layer 3
Режим : Joint stereo
Расширение режима : MS Stereo
Идентификатор кодека : 55
Идентификатор кодека/Подсказка : MP3
Продолжительность : 1 ч. 29 м.
Вид битрейта : Переменный
Битрейт : 128 Кбит/сек
Каналы : 2 канала
Частота : 44,1 КГц
Метод сжатия : С потерями
Размер потока : 85,4 Мбайт (13%)
Выравнивание : Соединение по промежуткам
Продолжительность промежутка : 26 мс. (0,65 видеокадр)
Время предзагрузки промежутка : 453 мс.
Заголовок : Audio

Media info CD 2:

Формат : AVI
Формат/Информация : Audio Video Interleave
Размер файла : 700 Мбайт
Продолжительность : 1 ч. 27 м.
Режим общего битрейта : Переменный
Общий поток : 1124 Кбит/сек
Видео
Идентификатор : 0
Формат : MPEG-4 Visual
Параметр BVOP формата : 1
Параметр QPel формата : Нет
Параметр GMC формата : Без точки перехода
Параметр матрицы формата : Default (H.263)
Режим смешивания : Сжатый битовый поток
Идентификатор кодека : DX50
Идентификатор кодека/Подсказка : DivX 5
Продолжительность : 1 ч. 27 м.
Битрейт : 977 Кбит/сек
Ширина : 640 пикселей
Высота : 480 пикселей
Соотношение сторон : 4:3
Частота кадров : 25,000 кадров/сек
Цветовое пространство : YUV
Субдискретизация насыщенности : 4:2:0
Битовая глубина : 8 бит
Тип развёртки : Прогрессивная
Метод сжатия : С потерями
Бит/(Пиксели*Кадры) : 0.127
Размер потока : 608 Мбайт (87%)
Заголовок : Video
Библиотека кодирования : DivX 5.2.1 Alpha (UTC 2004-09-08)
Аудио
Идентификатор : 1
Формат : MPEG Audio
Версия формата : Version 1
Профиль формата : Layer 3
Режим : Joint stereo
Расширение режима : MS Stereo
Идентификатор кодека : 55
Идентификатор кодека/Подсказка : MP3
Продолжительность : 1 ч. 27 м.
Вид битрейта : Переменный
Битрейт : 128 Кбит/сек
Каналы : 2 канала
Частота : 44,1 КГц
Метод сжатия : С потерями
Размер потока : 84,0 Мбайт (12%)
Выравнивание : Соединение по промежуткам
Продолжительность промежутка : 26 мс. (0,65 видеокадр)
Время предзагрузки промежутка : 469 мс.
Заголовок : Audio
Скриншоты:

Время раздачи: с8:00 до 24:00

Стивен Кинг - Сияние/The Shining. 1980 год

Представлено две экранизации романа Стивена Кинга " Сияние".

Стивен Кинг - Сияние/The Shining. 1980 год

Телевизионная версия романа.
Русское название: Сияние
Оригинальное название: The Shining
Год выпуска: 1980
Жанр: Ужасы, Фэнтези, Триллер
Описание фильма: Писатель Джек Торренс, приехал в элегантный отель, чтобы поработать смотрителем во время мертвого сезона вместе со своей женой и сыном. Торренс здесь раньше никогда не бывал. Или это не совсем так? Ответ лежит во мраке, сотканном из преступного кошмара… Подумайте о самом страшном. Космические монстры-пришельцы? Смертельная эпидемия? Или страх погибнуть от руки того, кто должен любить и защищать тебя - от руки члена твоей семьи?
Режиссер: Мик Гаррис /Mick Garris/.
Актеры: Ребекка Де Морнэй /Rebecca De Mornay/, Стивен Уэбер /Steven Weber/, Мелвин Ван Пиблз /Melvin Van Peebles/, Уил Хорнефф/Wil Horneff/, Эллиотт Гулд /Elliott Gould/, Пэт Хингл /Pat Hingle/.
СD 1
Продолжительность: 01:30:02
Перевод: Профессиональны многоголосный
Видеокодек: DivX 5
Битрейт видео: 950 Кбит/сек
Размер кадра: 640х352
Качество видео: DVDRip
Аудиокодек: AC3
Битрейт аудио: 113 Кбит/сек
СD 2
Продолжительность: 01:30:02
Перевод: Профессиональны многоголосный
Видеокодек: DivX 5
Битрейт видео: 880 Кбит/сек
Размер кадра: 624х352
Качество видео: DVDRip
Аудиокодек: AC3
Битрейт аудио: 192 Кбит/сек
СD 3
Продолжительность: 01:31:34
Перевод: Профессиональны многоголосный
Видеокодек: DivX 5
Битрейт видео: 872 Кбит/сек
Размер кадра: 560х320
Качество видео: DVDRip
Аудиокодек: AC3
Битрейт аудио: 192 Кбит/сек

Media info CD 1:

Формат : AVI
Формат/Информация : Audio Video Interleave
Размер файла : 698 Мбайт
Продолжительность : 1 ч. 30 м.
Режим общего битрейта : Переменный
Общий поток : 1076 Кбит/сек
Программа кодирования : VirtualDubMod 1.4.13
Библиотека кодирования : VirtualDub build 14328/release
Видео
Идентификатор : 0
Формат : MPEG-4 Visual
Параметр BVOP формата : 1
Параметр QPel формата : Нет
Параметр GMC формата : Без точки перехода
Параметр матрицы формата : Default (H.263)
Режим смешивания : Сжатый битовый поток
Идентификатор кодека : DX50
Идентификатор кодека/Подсказка : DivX 5
Продолжительность : 1 ч. 30 м.
Битрейт : 950 Кбит/сек
Ширина : 640 пикселей
Высота : 352 пикселя
Соотношение сторон : 16:9
Частота кадров : 23,976 кадра/сек
Цветовое пространство : YUV
Субдискретизация насыщенности : 4:2:0
Битовая глубина : 8 бит
Тип развёртки : Прогрессивная
Метод сжатия : С потерями
Бит/(Пиксели*Кадры) : 0.176
Размер потока : 616 Мбайт (88%)
Библиотека кодирования : DivX 5.0.5 (UTC 2003-04-24)
Аудио
Идентификатор : 1
Формат : MPEG Audio
Версия формата : Version 1
Профиль формата : Layer 3
Режим : Joint stereo
Расширение режима : MS Stereo
Идентификатор кодека : 55
Идентификатор кодека/Подсказка : MP3
Продолжительность : 1 ч. 30 м.
Вид битрейта : Переменный
Битрейт : 113 Кбит/сек
Каналы : 2 канала
Частота : 48,0 КГц
Метод сжатия : С потерями
Размер потока : 73,5 Мбайт (11%)
Выравнивание : Соединение по промежуткам
Продолжительность промежутка : 24 мс. (0,58 видеокадр)
Время предзагрузки промежутка : 162 мс.

Media info CD 2:

Формат : AVI
Формат/Информация : Audio Video Interleave
Размер файла : 700 Мбайт
Продолжительность : 1 ч. 30 м.
Общий поток : 1081 Кбит/сек
Программа кодирования : VirtualDubMod 1.4.13
Библиотека кодирования : VirtualDub build 14328/release
Видео
Идентификатор : 0
Формат : MPEG-4 Visual
Параметр BVOP формата : Да
Параметр QPel формата : Нет
Параметр GMC формата : Без точки перехода
Параметр матрицы формата : Default (H.263)
Идентификатор кодека : DX50
Идентификатор кодека/Подсказка : DivX 5
Продолжительность : 1 ч. 30 м.
Битрейт : 880 Кбит/сек
Ширина : 624 пикселя
Высота : 352 пикселя
Соотношение сторон : 16:9
Частота кадров : 23,976 кадра/сек
Цветовое пространство : YUV
Субдискретизация насыщенности : 4:2:0
Битовая глубина : 8 бит
Тип развёртки : Прогрессивная
Метод сжатия : С потерями
Бит/(Пиксели*Кадры) : 0.167
Размер потока : 569 Мбайт (81%)
Библиотека кодирования : DivX 5.0.2 (UTC 2002-05-16)
Аудио
Идентификатор : 1
Формат : AC-3
Формат/Информация : Audio Coding 3
Расширение режима : CM (complete main)
Параметр Endianness формата : Big
Идентификатор кодека : 2000
Продолжительность : 1 ч. 30 м.
Вид битрейта : Постоянный
Битрейт : 192 Кбит/сек
Каналы : 2 канала
Расположение каналов : Front: L R
Частота : 48,0 КГц
Битовая глубина : 16 бит
Метод сжатия : С потерями
Размер потока : 124 Мбайт (18%)
Выравнивание : Разделение по промежуткам
Продолжительность промежутка : 42 мс. (1,00 видеокадр)
Время предзагрузки промежутка : 500 мс.

Media info CD 3:

Формат : AVI
Формат/Информация : Audio Video Interleave
Размер файла : 699 Мбайт
Продолжительность : 1 ч. 31 м.
Общий поток : 1074 Кбит/сек
Программа кодирования : VirtualDubMod 1.4.13
Библиотека кодирования : VirtualDub build 14328/release
Видео
Идентификатор : 0
Формат : MPEG-4 Visual
Параметр BVOP формата : Да
Параметр QPel формата : Нет
Параметр GMC формата : Без точки перехода
Параметр матрицы формата : Default (H.263)
Идентификатор кодека : DX50
Идентификатор кодека/Подсказка : DivX 5
Продолжительность : 1 ч. 31 м.
Битрейт : 872 Кбит/сек
Ширина : 560 пикселей
Высота : 320 пикселей
Соотношение сторон : 16:9
Частота кадров : 23,976 кадра/сек
Цветовое пространство : YUV
Субдискретизация насыщенности : 4:2:0
Битовая глубина : 8 бит
Тип развёртки : Прогрессивная
Метод сжатия : С потерями
Бит/(Пиксели*Кадры) : 0.203
Размер потока : 568 Мбайт (81%)
Библиотека кодирования : DivX 5.0.2 (UTC 2002-05-16)
Аудио
Идентификатор : 1
Формат : AC-3
Формат/Информация : Audio Coding 3
Расширение режима : CM (complete main)
Параметр Endianness формата : Big
Идентификатор кодека : 2000
Продолжительность : 1 ч. 31 м.
Вид битрейта : Постоянный
Битрейт : 192 Кбит/сек
Каналы : 2 канала
Расположение каналов : Front: L R
Частота : 48,0 КГц
Битовая глубина : 16 бит
Метод сжатия : С потерями
Размер потока : 125 Мбайт (18%)
Выравнивание : Разделение по промежуткам
Продолжительность промежутка : 42 мс. (1,00 видеокадр)
Время предзагрузки промежутка : 500 мс.
Скриншоты:

Стивен Кинг - Сияние/The Shining. 1980 год

Режисерская версия Стенли Кубрика.
Русское название: Сияние
Оригинальное название: The Shining
Год выпуска: 1980
Жанр: Ужасы, Фэнтези, Триллер
Описание фильма: В сценарии по роману Стивена Кинга, Кубрик соединил прекрасную игру актеров, стильно подобранное место действия, мастерски снятые кадры и сложенную из шока конструкцию.
Год выхода: 1980.
Режиссер: Стэнли Кубрик /Stanley Kubrick/.
Актеры: Джек Николсон /Jack Nicholson/, Шелли Дюволл /Shelley Duvall/, Дэнни Ллойд /Danny Lloyd/, Скэтмэн Крозерс /Scatman Crothers/, Барри Нелсон /Barry Nelson/, Филип Стоун /Philip Stone/.
СD 1
Продолжительность: 01:04:03
Перевод: Профессиональный многоголосный
Видеокодек: DivX
Битрейт видео: 1189 Кбит/сек
Размер кадра: 576х432
Качество видео: DVDRip
Аудиокодек: AC3
Битрейт аудио: 320 Кбит/сек
СD 2
Продолжительность: 01:19:11
Перевод: Профессиональный многоголосный
Видеокодек: DivX
Битрейт видео: 905 Кбит/сек
Размер кадра: 576х432
Качество видео: DVDRip
Аудиокодек: AC3
Битрейт аудио: 320 Кбит/сек

Media info Стенли Кубрика CD 1:

Формат : AVI
Формат/Информация : Audio Video Interleave
Размер файла : 699 Мбайт
Продолжительность : 1 ч. 4 м.
Общий поток : 1517 Кбит/сек
Программа кодирования : Nandub v1.0rc2
Библиотека кодирования : Nandub build 1853/release
Видео
Идентификатор : 0
Формат : MPEG-4 Visual
Параметр BVOP формата : 1
Параметр QPel формата : Нет
Параметр GMC формата : 2 точки перехода
Параметр матрицы формата : Default (H.263)
Режим смешивания : Сжатый битовый поток
Идентификатор кодека : DX50
Идентификатор кодека/Подсказка : DivX 5
Продолжительность : 1 ч. 4 м.
Битрейт : 1189 Кбит/сек
Ширина : 576 пикселей
Высота : 432 пикселя
Соотношение сторон : 4:3
Частота кадров : 23,976 кадра/сек
Цветовое пространство : YUV
Субдискретизация насыщенности : 4:2:0
Битовая глубина : 8 бит
Тип развёртки : Прогрессивная
Метод сжатия : С потерями
Бит/(Пиксели*Кадры) : 0.199
Размер потока : 548 Мбайт (78%)
Библиотека кодирования : DivX 5.0.3 (UTC 2003-01-24)
Аудио
Идентификатор : 1
Формат : AC-3
Формат/Информация : Audio Coding 3
Расширение режима : CM (complete main)
Параметр Endianness формата : Big
Идентификатор кодека : 2000
Продолжительность : 1 ч. 4 м.
Вид битрейта : Постоянный
Битрейт : 320 Кбит/сек
Каналы : 6 каналов
Расположение каналов : Front: L C R, Side: L R, LFE
Частота : 48,0 КГц
Битовая глубина : 16 бит
Метод сжатия : С потерями
Задержка видео : 13 мс.
Размер потока : 147 Мбайт (21%)
Выравнивание : Разделение по промежуткам
Продолжительность промежутка : 64 мс. (1,53 видеокадра)
Время предзагрузки промежутка : 64 мс.

Media info Стенли Кубрика CD 2:

Формат : AVI
Формат/Информация : Audio Video Interleave
Размер файла : 700 Мбайт
Продолжительность : 1 ч. 19 м.
Общий поток : 1233 Кбит/сек
Программа кодирования : Nandub v1.0rc2
Библиотека кодирования : Nandub build 1853/release
Видео
Идентификатор : 0
Формат : MPEG-4 Visual
Параметр BVOP формата : 1
Параметр QPel формата : Нет
Параметр GMC формата : 2 точки перехода
Параметр матрицы формата : Default (H.263)
Режим смешивания : Сжатый битовый поток
Идентификатор кодека : DX50
Идентификатор кодека/Подсказка : DivX 5
Продолжительность : 1 ч. 19 м.
Битрейт : 905 Кбит/сек
Ширина : 576 пикселей
Высота : 432 пикселя
Соотношение сторон : 4:3
Частота кадров : 23,976 кадра/сек
Цветовое пространство : YUV
Субдискретизация насыщенности : 4:2:0
Битовая глубина : 8 бит
Тип развёртки : Прогрессивная
Метод сжатия : С потерями
Бит/(Пиксели*Кадры) : 0.152
Размер потока : 514 Мбайт (73%)
Библиотека кодирования : DivX 5.0.3 (UTC 2003-01-24)
Аудио
Идентификатор : 1
Формат : AC-3
Формат/Информация : Audio Coding 3
Расширение режима : CM (complete main)
Параметр Endianness формата : Big
Идентификатор кодека : 2000
Продолжительность : 1 ч. 19 м.
Вид битрейта : Постоянный
Битрейт : 320 Кбит/сек
Каналы : 6 каналов
Расположение каналов : Front: L C R, Side: L R, LFE
Частота : 48,0 КГц
Битовая глубина : 16 бит
Метод сжатия : С потерями
Задержка видео : 2 мс.
Размер потока : 182 Мбайт (26%)
Выравнивание : Разделение по промежуткам
Продолжительность промежутка : 64 мс. (1,53 видеокадра)
Время предзагрузки промежутка : 64 мс.
Скриншоты:

Время раздачи: с 8:00 до 24:00

Стивен Кинг - Калейдоскоп ужасов / Creepshow. 1982 год

Русское название: Калейдоскоп ужасов
Оригинальное название: Creepshow
Год выпуска: 1982
Жанр: Ужасы, Фэнтези, Триллер
Описание фильма: Сотрудничество Ромеро и Стивена Кинга привело к созданию этого фильма по комиксам 50-х годов. Состоит лента из коротких киноновелл, вырвавшихся из отобранной у сына и выброшенной папой на улицу книжки комиксов. Нет смысла пересказывать все пять эпизодов, любители жанра сами с удовольствием посмотрят, как хорошие актеры разыгрывают столь любимые ими "страшилки". Сделано все с явной иронией и черным юмором.
Режиссер: Джордж А. Ромеро /George A. Romero/
Актеры: Хэл Холбрук /Hal Holbrook/, Эдриэнн Барбо /Adrienne Barbeau/, Лесли Нилсен /Leslie Nielsen/, Эд Хэррис /Ed Harris/, Тед Дэнсон /Ted Danson/, Стивен Кинг /Stephen King/
CD 1
Продолжительность: 01:01:00
Перевод: Любительский (одноголосый)
Видеокодек: DivX 5
Битрейт видео: 1382 Кбит/сек
Размер кадра: 608х336
Качество видео: DVDRip
Аудиокодек: AC-3
Битрейт аудио: 192 Кбит/сек
CD 2
Продолжительность:
Перевод: Любительский (одноголосый)
Видеокодек: DivX 5
Битрейт видео: 1464 Кбит/сек
Размер кадра: 608х336
Качество видео: DVDRip
Аудиокодек: AC-3
Битрейт аудио: 192 Кбит/сек

Media info CD 1:

Формат : AVI
Формат/Информация : Audio Video Interleave
Размер файла : 699 Мбайт
Продолжительность : 1 ч. 1 м.
Общий поток : 1584 Кбит/сек
Программа кодирования : VirtualDubMod 1.4.13
Библиотека кодирования : VirtualDub build 14328/release
segm :
Видео
Идентификатор : 0
Формат : MPEG-4 Visual
Параметр BVOP формата : 1
Параметр QPel формата : Нет
Параметр GMC формата : Без точки перехода
Параметр матрицы формата : Default (H.263)
Режим смешивания : Сжатый битовый поток
Идентификатор кодека : DX50
Идентификатор кодека/Подсказка : DivX 5
Продолжительность : 1 ч. 1 м.
Битрейт : 1382 Кбит/сек
Ширина : 608 пикселей
Высота : 336 пикселей
Соотношение сторон : 16:9
Частота кадров : 23,976 кадра/сек
Цветовое пространство : YUV
Субдискретизация насыщенности : 4:2:0
Битовая глубина : 8 бит
Тип развёртки : Прогрессивная
Метод сжатия : С потерями
Бит/(Пиксели*Кадры) : 0.282
Размер потока : 610 Мбайт (87%)
Библиотека кодирования : DivX 5.0.5 (UTC 2003-04-24)
Аудио
Идентификатор : 1
Формат : AC-3
Формат/Информация : Audio Coding 3
Расширение режима : CM (complete main)
Параметр Endianness формата : Big
Идентификатор кодека : 2000
Продолжительность : 1 ч. 1 м.
Вид битрейта : Постоянный
Битрейт : 192 Кбит/сек
Каналы : 2 канала
Расположение каналов : Front: L R
Частота : 48,0 КГц
Битовая глубина : 16 бит
Метод сжатия : С потерями
Размер потока : 84,8 Мбайт (12%)
Выравнивание : Разделение по промежуткам
Продолжительность промежутка : 42 мс. (1,00 видеокадр)
Время предзагрузки промежутка : 500 мс.

Media info CD 2:

Формат : AVI
Формат/Информация : Audio Video Interleave
Размер файла : 699 Мбайт
Продолжительность : 58 м.
Общий поток : 1666 Кбит/сек
Программа кодирования : VirtualDubMod 1.4.13
Библиотека кодирования : VirtualDub build 14328/release
Видео
Идентификатор : 0
Формат : MPEG-4 Visual
Параметр BVOP формата : 1
Параметр QPel формата : Нет
Параметр GMC формата : Без точки перехода
Параметр матрицы формата : Default (H.263)
Режим смешивания : Сжатый битовый поток
Идентификатор кодека : DX50
Идентификатор кодека/Подсказка : DivX 5
Продолжительность : 58 м.
Битрейт : 1464 Кбит/сек
Ширина : 608 пикселей
Высота : 336 пикселей
Соотношение сторон : 16:9
Частота кадров : 23,976 кадра/сек
Цветовое пространство : YUV
Субдискретизация насыщенности : 4:2:0
Битовая глубина : 8 бит
Тип развёртки : Прогрессивная
Метод сжатия : С потерями
Бит/(Пиксели*Кадры) : 0.299
Размер потока : 614 Мбайт (88%)
Библиотека кодирования : DivX 5.0.5 (UTC 2003-04-24)
Аудио
Идентификатор : 1
Формат : AC-3
Формат/Информация : Audio Coding 3
Расширение режима : CM (complete main)
Параметр Endianness формата : Big
Идентификатор кодека : 2000
Продолжительность : 58 м.
Вид битрейта : Постоянный
Битрейт : 192 Кбит/сек
Каналы : 2 канала
Расположение каналов : Front: L R
Частота : 48,0 КГц
Битовая глубина : 16 бит
Метод сжатия : С потерями
Задержка видео : 5 мс.
Размер потока : 80,5 Мбайт (12%)
Выравнивание : Разделение по промежуткам
Продолжительность промежутка : 42 мс. (1,00 видеокадр)
Скриншоты:

Время раздачи: с 8:00 до 24:00

Стивен Кинг - Куджо/Cujo. 1983 год

Русское название: Куджо
Оригинальное название: Cujo
Год выпуска: 1983
Жанр: Ужасы, Фэнтези, Триллер
Описание фильма: Действие фильма происходит в тихом уголке Новой Англии, но никакой идиллии - женщину и ее сына терроризирует собака. Огромный сербернар по кличке Куджо, укушенный летучей мышью...
Режиссер: Льюис Тиг /Lewis Teague/
Актеры: Ди Уоллес-Стоун /Dee Wallace-Stone/, Дэнни Пинтауро /Danny Pintauro/, Дэниэл Хью-Келли /Daniel Hugh-Kelly/, Кристофер Стоун /Christopher Stone/, Эд Лоутер /Ed Lauter/, Кайюлани Ли /Kaiulani Lee/
Продолжительность: 01:33:27
Перевод: Профессиональный многоголосный
Видеокодек: DivX 5
Битрейт видео: 1794 Кбит/сек
Размер кадра: 544х416
Качество видео: DVDRip
Аудио #1
Аудиокодек: AC-3
Битрейт аудио: 192 Кбит/сек
Аудио #1
Аудиокодек: MPEG Audio
Битрейт аудио: 128 Кбит/сек

Media info:

Формат : AVI
Формат/Информация : Audio Video Interleave
Размер файла : 1,37 Гбайт
Продолжительность : 1 ч. 33 м.
Режим общего битрейта : Переменный
Общий поток : 2105 Кбит/сек
Программа кодирования : VirtualDubMod 1.5.4.1 (build 2178/release)
Библиотека кодирования : VirtualDubMod build 2178/release
Видео
Идентификатор : 0
Формат : MPEG-4 Visual
Параметр BVOP формата : 1
Параметр QPel формата : Нет
Параметр GMC формата : Без точки перехода
Параметр матрицы формата : Default (H.263)
Режим смешивания : Сжатый битовый поток
Идентификатор кодека : DX50
Идентификатор кодека/Подсказка : DivX 5
Продолжительность : 1 ч. 33 м.
Битрейт : 1794 Кбит/сек
Ширина : 544 пикселя
Высота : 416 пикселей
Соотношение сторон : 4:3
Частота кадров : 23,976 кадра/сек
Цветовое пространство : YUV
Субдискретизация насыщенности : 4:2:0
Битовая глубина : 8 бит
Тип развёртки : Прогрессивная
Метод сжатия : С потерями
Бит/(Пиксели*Кадры) : 0.331
Размер потока : 1,17 Гбайт (85%)
Библиотека кодирования : DivX 6.2.5 (UTC 2006-07)
Аудио #1
Идентификатор : 1
Формат : AC-3
Формат/Информация : Audio Coding 3
Расширение режима : CM (complete main)
Параметр Endianness формата : Big
Идентификатор кодека : 2000
Продолжительность : 1 ч. 33 м.
Вид битрейта : Постоянный
Битрейт : 192 Кбит/сек
Каналы : 2 канала
Расположение каналов : Front: L R
Частота : 48,0 КГц
Битовая глубина : 16 бит
Метод сжатия : С потерями
Размер потока : 128 Мбайт (9%)
Выравнивание : Разделение по промежуткам
Продолжительность промежутка : 96 мс. (2,30 видеокадра)
Время предзагрузки промежутка : 96 мс.
Язык : Russian
Аудио #2
Идентификатор : 2
Формат : MPEG Audio
Версия формата : Version 1
Профиль формата : Layer 3
Режим : Joint stereo
Расширение режима : MS Stereo
Идентификатор кодека : 55
Идентификатор кодека/Подсказка : MP3
Продолжительность : 1 ч. 33 м.
Вид битрейта : Переменный
Номинальный битрейт : 128 Кбит/сек
Каналы : 2 канала
Частота : 48,0 КГц
Метод сжатия : С потерями
Размер потока : 69,4 Мбайт (5%)
Выравнивание : Соединение по промежуткам
Продолжительность промежутка : 24 мс. (0,58 видеокадр)
Время предзагрузки промежутка : 519 мс.
Библиотека кодирования : LAME3.97b
Настройки программы : -m j -V 4 -q 2 -lowpass 17 --abr 128
Язык : English
Скриншоты:

Время раздачи: с 8:00 до 24:00

Стивен Кинг - Мертвая зона/The Dead Zone. 1983 год

Русское название: Мертвая зона
Оригинальное название: The Dead Zone
Год выпуска: 1983
Жанр: Ужасы, Фэнтези, Триллер
Описание фильма: Возвращаясь с прогулки на машине, со своей девушкой, преподователь литературы Джон Смит попадает в аварию. В течении пяти лет, после катастрофы он пребывает в коме. Пять потерянных лет. Но, придя в себя, он приобретает сверхъестественные способности, которыми обладают лишь экстрасенсы - дар предсказывать катастрофы и судьбы людей. Его уникальными возможностями вначале интересуются полиция, а затем и политики большого ранга. И вскоре выяснилось, что только Джон Смит может остановить неразборчивого в средствах политика, рвущегося к власти...
Режиссер: Дэвид Кроненберг /David Cronenberg/.
Актеры: Кристофер Уокен /Christopher Walken/, Брук Эдамс /Brooke Adams/, Том Скерритт /Tom Skerritt/, Херберт Лом /Herbert Lom/.
Продолжительность: 01:43:00
Перевод: Профессиональный многоголосный
Видеокодек: XviD
Битрейт видео: 1425 Кбит/сек
Размер кадра: 640х352
Качество видео: DVDRip
Аудиокодек: AC-3
Битрейт аудио: 448 Кбит/сек

Media info:

Формат : AVI
Формат/Информация : Audio Video Interleave
Размер файла : 1,36 Гбайт
Продолжительность : 1 ч. 43 м.
Общий поток : 1881 Кбит/сек
Программа кодирования : VirtualDubMod 1.5.10.2 (build 2540/release)
Библиотека кодирования : VirtualDubMod build 2540/release
Видео
Идентификатор : 0
Формат : MPEG-4 Visual
Профиль формата : Advanced [email protected]
Параметр BVOP формата : 2
Параметр QPel формата : Нет
Параметр GMC формата : Без точки перехода
Параметр матрицы формата : Default (H.263)
Режим смешивания : Сжатый битовый поток
Идентификатор кодека : XVID
Идентификатор кодека/Подсказка : XviD
Продолжительность : 1 ч. 43 м.
Битрейт : 1425 Кбит/сек
Ширина : 640 пикселей
Высота : 352 пикселя
Соотношение сторон : 16:9
Частота кадров : 23,976 кадра/сек
Цветовое пространство : YUV
Субдискретизация насыщенности : 4:2:0
Битовая глубина : 8 бит
Тип развёртки : Прогрессивная
Метод сжатия : С потерями
Бит/(Пиксели*Кадры) : 0.264
Размер потока : 1,03 Гбайт (76%)
Библиотека кодирования : XviD 1.1.0 (UTC 2005-11-22)
Аудио
Идентификатор : 1
Формат : AC-3
Формат/Информация : Audio Coding 3
Расширение режима : CM (complete main)
Параметр Endianness формата : Big
Идентификатор кодека : 2000
Продолжительность : 1 ч. 43 м.
Вид битрейта : Постоянный
Битрейт : 448 Кбит/сек
Каналы : 6 каналов
Расположение каналов : Front: L C R, Side: L R, LFE
Частота : 48,0 КГц
Битовая глубина : 16 бит
Метод сжатия : С потерями
Размер потока : 332 Мбайт (24%)
Выравнивание : Разделение по промежуткам
Продолжительность промежутка : 64 мс. (1,53 видеокадра)
Время предзагрузки промежутка : 64 мс.
Скриншоты:

Время раздачи: с 8:00 до 24:00

Стивен Кинг - Кристина/Christine. 1983 год

Русское название: Кристина
Оригинальное название: Christine
Год выпуска: 1983
Жанр: Ужасы, Фэнтези, Триллер
Описание фильма: Кристина - не женщина, но Эрни Каннингейм любит ее до безумия. Кристина - не женщина, но подруга Эрни с первого взгляда понимает, что это ее соперница. Кристина не женщина, но родители Эрни вынуждены делить с ней сына. Кристина это старая побитая машина марки "Плимут", которую Эрни купил и привел в порядок находясь в каком-то странном наваждении. И теперь настало время Кристины! Время убивать всех тех, кто ей мешает!
Режиссер: Джон Карпентер /John Carpenter/.
Актеры: Кит Гордон /Keith Gordon/, Джон Стоквелл /John Stockwell/, Харри Дин Стентон /Harry Dean Stanton/, Александра Пол /Alexandra Paul/.
Продолжительность: 01:45:22
Перевод: Профессиональный многоголосный
Видеокодек: XviD
Битрейт видео: 1332 Кбит/сек
Размер кадра: 720х304
Качество видео: DVDRip
Аудио #1
Аудиокодек: AC-3
Битрейт аудио: 256 Кбит/сек
Аудио #2
Аудиокодек: AC-3
Битрейт аудио: 256 Кбит/сек

Media info:

Формат : AVI
Формат/Информация : Audio Video Interleave
Размер файла : 1,37 Гбайт
Продолжительность : 1 ч. 45 м.
Общий поток : 1859 Кбит/сек
Название фильма : Кристина / Christine (1983)
Правообладатель : HeDgEhOt®
Видео
Идентификатор : 0
Формат : MPEG-4 Visual
Профиль формата : [email protected]
Параметр BVOP формата : 2
Параметр QPel формата : Нет
Параметр GMC формата : Без точки перехода
Параметр матрицы формата : Default (MPEG)
Идентификатор кодека : XVID
Идентификатор кодека/Подсказка : XviD
Продолжительность : 1 ч. 45 м.
Битрейт : 1332 Кбит/сек
Ширина : 720 пикселей
Высота : 304 пикселя
Соотношение сторон : 2,35:1
Частота кадров : 25,000 кадров/сек
Цветовое пространство : YUV
Субдискретизация насыщенности : 4:2:0
Битовая глубина : 8 бит
Тип развёртки : Прогрессивная
Метод сжатия : С потерями
Бит/(Пиксели*Кадры) : 0.243
Размер потока : 1006 Мбайт (72%)
Библиотека кодирования : XviD 1.0.1 (UTC 2004-06-05)
Аудио #1
Идентификатор : 1
Формат : AC-3
Формат/Информация : Audio Coding 3
Расширение режима : CM (complete main)
Параметр Endianness формата : Big
Идентификатор кодека : 2000
Продолжительность : 1 ч. 45 м.
Вид битрейта : Постоянный
Битрейт : 256 Кбит/сек
Каналы : 2 канала
Расположение каналов : Front: L R
Частота : 48,0 КГц
Битовая глубина : 16 бит
Метод сжатия : С потерями
Размер потока : 193 Мбайт (14%)
Выравнивание : Разделение по промежуткам
Продолжительность промежутка : 40 мс. (1,00 видеокадр)
Время предзагрузки промежутка : 500 мс.
Язык : Русский / English
Аудио #2
Идентификатор : 2
Формат : AC-3
Формат/Информация : Audio Coding 3
Профиль формата : Dolby Digital
Расширение режима : CM (complete main)
Параметр Endianness формата : Big
Идентификатор кодека : 2000
Продолжительность : 1 ч. 45 м.
Вид битрейта : Постоянный
Битрейт : 256 Кбит/сек
Каналы : 2 канала
Расположение каналов : Front: L R
Частота : 48,0 КГц
Битовая глубина : 16 бит
Метод сжатия : С потерями
Размер потока : 193 Мбайт (14%)
Выравнивание : Разделение по промежуткам
Продолжительность промежутка : 40 мс. (1,00 видеокадр)
Время предзагрузки промежутка : 500 мс.
Скриншоты:

Время раздачи: с 8:00 до 24:00

Стивен Кинг - Сказки темной стороны/Tales from the Darkside. 1984 год

Русское название: Сказки темной стороны
Оригинальное название: Тales from the Darkside
Год выпуска: 1984
Жанр: Ужасы, Фэнтези, Триллер
Описание фильма: Три короткометражных фильма по мотивам рассказов Стивена Кинга: три страшилки, которые рассказывает мальчик ведьме, что готовится его съесть, пытаясь тем самым выиграть время для своего спасения. В первом эпизоде речь идет об ожившей мумии, преследующей нескольких студентов колледжа; во втором – об адской кошке, которую невозможно убить, но которая легко может убить сама; и в третьем – о мужчине, что стал свидетелем странного убийства и поклялся никому о нем не рассказывать...
Режиссер: Джон Харрисон /John Harrison/.
Актеры: Дебора Харри /Deborah Harry/, Дэвид Форрестер /David Forrester/, Мэттью Лоуренс /Matthew Lawrence/, Кристиан Слейтер /Christian Slate/.
Продолжительность: 01:33:13
Перевод: Одноголсный закадровый
Видеокодек: XviD
Битрейт видео: 1974 Кбит/сек
Размер кадра: 720х416
Качество видео: DVDRip
Аудиокодек: MPEG Audio
Битрейт аудио: 128 Кбит/сек

Media info:

Формат : AVI
Формат/Информация : Audio Video Interleave
Размер файла : 1,37 Гбайт
Продолжительность : 1 ч. 33 м.
Режим общего битрейта : Переменный
Общий поток : 2097 Кбит/сек
Программа кодирования : VirtualDubMod 1.5.4.1 (build 2178/release)
Библиотека кодирования : VirtualDubMod build 2178/release
Видео
Идентификатор : 0
Формат : MPEG-4 Visual
Профиль формата : Advanced [email protected]
Параметр BVOP формата : 1
Параметр QPel формата : Нет
Параметр GMC формата : Без точки перехода
Параметр матрицы формата : Выборочная
Идентификатор кодека : XVID
Идентификатор кодека/Подсказка : XviD
Продолжительность : 1 ч. 33 м.
Битрейт : 1974 Кбит/сек
Ширина : 720 пикселей
Высота : 416 пикселей
Соотношение сторон : 1,731
Частота кадров : 23,976 кадра/сек
Цветовое пространство : YUV
Субдискретизация насыщенности : 4:2:0
Битовая глубина : 8 бит
Тип развёртки : Прогрессивная
Метод сжатия : С потерями
Бит/(Пиксели*Кадры) : 0.275
Размер потока : 1,29 Гбайт (94%)
Библиотека кодирования : XviD 1.1.0 (UTC 2005-11-22)
Аудио
Идентификатор : 1
Формат : MPEG Audio
Версия формата : Version 1
Профиль формата : Layer 3
Режим : Joint stereo
Расширение режима : MS Stereo
Идентификатор кодека : 55
Идентификатор кодека/Подсказка : MP3
Продолжительность : 1 ч. 33 м.
Вид битрейта : Переменный
Битрейт : 110 Кбит/сек
Номинальный битрейт : 128 Кбит/сек
Каналы : 2 канала
Частота : 48,0 КГц
Метод сжатия : С потерями
Размер потока : 73,4 Мбайт (5%)
Выравнивание : Соединение по промежуткам
Продолжительность промежутка : 24 мс. (0,58 видеокадр)
Время предзагрузки промежутка : 167 мс.
Библиотека кодирования : LAME3.97
Настройки программы : -m j -V 4 -q 2 -lowpass 17 --abr 128
Язык : Russian
Скриншоты:

Время раздачи: с 8:00 до 24:00

Стивен Кинг - Воспламеняющая взглядом/Firestarter. 1984 год

Русское название: Воспламеняющая взглядом
Оригинальное название: Firestarter
Год выпуска: 1984
Жанр: Ужасы, Фэнтези, Триллер
Описание фильма: Чарли Макги кажется обычной счастливой девочкой восьми лет, пока что-нибудь не разозлит ее или не начнет яугрожать ее семье. Тогда Чарли меняется: проявляется ее унаследованная от родителей смертоносная способность - зажигать взглядом все, что она пожелает. Спецслужбы хотят использовать девочку и похищают ее, убивая при этом маму Чарли. Они хотят контролировать девочку… или уничтожить. Ее отец не в силах спасти дочку, но Чарли сумеет позаботиться о себе сама.
Режиссер: Марк Л. Лестер /Mark L. Lester/.
Актеры: Дэвид Кит /David Keith/, Дрю Бэрримор /Drew Barrymore/, Мартин Шин /Martin Sheen/, Джордж С. Скотт /George C. Scott/, Арт Карни /Art Carney/.
Продолжительность: 01:53:47
Перевод: Профессиональный многоголосный
Видеокодек: DivX
Битрейт видео: 720 Кбит/сек
Размер кадра: 576х240
Качество видео: DVDRip
Аудиокодек: MP3
Битрейт аудио: 128 Кбит/сек

Media info:

Формат : AVI
Формат/Информация : Audio Video Interleave
Размер файла : 698 Мбайт
Продолжительность : 1 ч. 53 м.
Общий поток : 857 Кбит/сек
Программа кодирования : VirtualDubMod 1.5.10.1 (build 2366/release)
Библиотека кодирования : VirtualDubMod build 2366/release
Видео
Идентификатор : 0
Формат : MPEG-4 Visual
Идентификатор кодека : DIV3
Идентификатор кодека/Подсказка : DivX 3 Low
Продолжительность : 1 ч. 53 м.
Битрейт : 720 Кбит/сек
Ширина : 576 пикселей
Высота : 240 пикселей
Соотношение сторон : 2,40:1
Частота кадров : 23,976 кадра/сек
Цветовое пространство : YUV
Субдискретизация насыщенности : 4:2:0
Битовая глубина : 8 бит
Метод сжатия : С потерями
Бит/(Пиксели*Кадры) : 0.217
Размер потока : 586 Мбайт (84%)
Аудио
Идентификатор : 1
Формат : MPEG Audio
Версия формата : Version 1
Профиль формата : Layer 3
Режим : Joint stereo
Расширение режима : MS Stereo
Идентификатор кодека : 55
Идентификатор кодека/Подсказка : MP3
Продолжительность : 1 ч. 53 м.
Вид битрейта : Постоянный
Битрейт : 128 Кбит/сек
Каналы : 2 канала
Частота : 44,1 КГц
Метод сжатия : С потерями
Размер потока : 104 Мбайт (15%)
Выравнивание : Разделение по промежуткам
Продолжительность промежутка : 42 мс. (1,00 видеокадр)
Время предзагрузки промежутка : 500 мс.
Скриншоты:

Время раздачи: с 8:00 до 24:00

Стивен Кинг - Дети кукурузы/Children of the Corn. 1984 год

Русское название: Дети кукурузы
Оригинальное название: Children of the Corn
Год выпуска: 1984
Жанр: Ужасы, Фэнтези, Триллер
Описание фильма:Супружеская пара на свою беду заезжает в маленький городишко, где творяться жуткие вещи Дети под предводительством Айзэка перебили всех взрослых и справляют культ кукурузному чудовищу, явному порождению сверхъестественных сил...
Режиссер: Фриц Кирш /Fritz Kiersch/.
Актеры:Питер Хортон /Peter Horton/, Линда Хэмилтон /Linda Hamilton/, Р. Дж. Армстронг / R. G. Armstrong/, Джон Фрэнклин /John Franklin/, Кортни Гэйнс /Courtney Gains/.
Продолжительность: 01:32:00
Перевод: Профессиональный многоголосный
Видеокодек: DivX
Битрейт видео: 1668 Кбит/сек
Размер кадра: 720х448
Качество видео: DVDRip
Аудиокодек: AC3
Битрейт аудио: 448 Кбит/сек

Media info:

Формат : AVI
Формат/Информация : Audio Video Interleave
Размер файла : 1,37 Гбайт
Продолжительность : 1 ч. 32 м.
Общий поток : 2123 Кбит/сек
Программа кодирования : VirtualDubMod 1.5.4.1 (build 2178/release)
Библиотека кодирования : VirtualDubMod build 2178/release
Видео
Идентификатор : 0
Формат : MPEG-4 Visual
Параметр BVOP формата : 1
Параметр QPel формата : Нет
Параметр GMC формата : Без точки перехода
Параметр матрицы формата : Default (H.263)
Режим смешивания : Сжатый битовый поток
Идентификатор кодека : DX50
Идентификатор кодека/Подсказка : DivX 5
Продолжительность : 1 ч. 32 м.
Битрейт : 1668 Кбит/сек
Ширина : 720 пикселей
Высота : 448 пикселей
Соотношение сторон : 1,607
Частота кадров : 25,000 кадров/сек
Цветовое пространство : YUV
Субдискретизация насыщенности : 4:2:0
Битовая глубина : 8 бит
Тип развёртки : Прогрессивная
Метод сжатия : С потерями
Бит/(Пиксели*Кадры) : 0.207
Размер потока : 1,07 Гбайт (79%)
Библиотека кодирования : DivX 6.4.0 (UTC 2006-10-03)
Аудио
Идентификатор : 1
Формат : AC-3
Формат/Информация : Audio Coding 3
Расширение режима : CM (complete main)
Параметр Endianness формата : Big
Идентификатор кодека : 2000
Продолжительность : 1 ч. 32 м.
Вид битрейта : Постоянный
Битрейт : 448 Кбит/сек
Каналы : 6 каналов
Расположение каналов : Front: L C R, Side: L R, LFE
Частота : 48,0 КГц
Битовая глубина : 16 бит
Метод сжатия : С потерями
Размер потока : 295 Мбайт (21%)
Выравнивание : Разделение по промежуткам
Продолжительность промежутка : 96 мс. (2,40 видеокадра)
Время предзагрузки промежутка : 96 мс.
Язык : Russian
Скриншоты:
Вне форума [Профиль] [ЛС]
Похожие темы
Форум Тема Автор Торрент Отв. Посл. сообщение
./templates/default/images/folder_dl.gif Фантастика, фэнтези, ужасы, мистика Кинг Стивен – 11/22/63 [Князев Игорь (ЛИ), 2013 г., 160 kbps, MP3] Omen
1 | 0

0 | 335

3

2013-03-29 13:44
Omen Последнее
./templates/default/images/folder_dl.gif Фильмы 2001-2010 Я плюю на ваши могилы / I Spit on Your Grave (Стивен Р. Монро) [2010 г., криминал, триллер, ужасы, BDRip1080p] Владимирский
1 | 0

1 | 496

1

2015-07-21 05:03
Dracula Последнее
./templates/default/images/folder_dl.gif Книги для IPhone, IPod, Apple Кинг Стивен, Страуб Питер - Талисман [Воротилин Олег (ЛИ), 2016, Фэнтези, 128 kbps], M4B VHS
1 | 0

0 | 189

2

2016-03-27 19:57
VHS Последнее
./templates/default/images/folder_dl.gif Книги для IPhone, IPod, Apple Бахман Ричард \ Кинг Стивен - Регуляторы [vaska hulya (ЛИ), 2016, Триллер,мистика, 128 kbps], M4B VHS
1 | 0

0 | 261

1

2016-04-05 22:47
VHS Последнее
./templates/default/images/folder_dl.gif Книги для IPhone, IPod, Apple Кинг Стивен - Тёмная башня - V: Волки Кальи [Волков Роман, Булдаков Олег, Волкова Ирина, Князев Игорь, Digig, Петров Никита, BigBag, 2016, Фантастика, фэнтези, мистика, 192 kbps], M4B VHS
1 | 0

0 | 177

1

2016-09-02 18:56
VHS Последнее
./templates/default/images/folder_dl.gif Книги для IPhone, IPod, Apple Кинг Стивен - Противостояние [Булдаков Олег, 2016, Фантастика, мистика, 192 kbps], M4B VHS
1 | 0

1 | 245

2

2016-09-28 20:02
VHS Последнее
Показать сообщения:    
Ответить на тему

Текущее время: Сегодня 13:11

Часовой пояс: GMT + 3



Вы не можете начинать темы
Вы не можете отвечать на сообщения
Вы не можете редактировать свои сообщения
Вы не можете удалять свои сообщения
Вы не можете голосовать в опросах
Вы не можете прикреплять файлы к сообщениям
Вы не можете скачивать файлы