Сегодня идет свободное скачивание без начисления Download

Босс / Le Pacha (1968) DVDRip

Ответить на тему
 
Автор
Сообщение

Omen ®

Стаж: 4 года 1 месяц

Сообщений: 194359

Торрент-статистика

Пост 09-Янв-2013 04:44

[Цитировать]

-Босс / Le Pacha (1968) DVDRip- Русское название: Босс
Оригинальное название: Le Pacha
Год выпуска: 1968
Производство: Франция, Италия, Gafer, Rizzoli Film, Socit Nouvelle des tablissements Gaumont (SNEG)
Жанр: Фэнтези, мелодрама, комедия, детектив, музыка
Перевод: Профессиональный (двухголосый)
Субтитры: Русские

Премьера: 14 марта 1968 (Франция), 23 июля 1968 (ФРГ)
Режиссер: Жорж Лотнер
Актеры: Жан Габен, Дани Каррель, Жан Гавен, Андре Пусс, Луи Арбессье, Жерар Бюр, Робер Дальбан, Морис Гаррель, Пьер Кулак, Пьер Лепру, Фредерик де Паскуаль, Андре Вебер, Марианна Комтель, Луи Сенье, Ив Барсак, Филипп Валлори....
Описание фильма:
Экранизация романа "Большой палец" Жана Лаборде, написанного под псевдонимом Жан Делион.
Марсель Лурати по прозвищу Квинквин и его преспешники грабят инкасаторскую машину и безжалостно расправляются с охранниками. Спустя какое-то время всех участников налета поочередно начинают находить мертвыми. Ко всему прочему, инспектора Анри Гувена, отвечающего за безопасность перевозки ценных грузов, убивает таинственный убийца. Дивизионному комиссару полиции Луи Жоссу (Жан Габен) остается всего лишь несколько месяцев до отставки, но он лично подключается к расследованию, чтобы собственными усилиями найти убийцу и отомстить за своего друга инспектора Гувена.…
Продолжительность: 01:21:42
Качество видео: DVDRip
Видеокодек: XviD
Битрейт видео: 3030 Кбит/сек
Размер кадра: 720x448
Аудио 1: Русский, AC3, 2 ch, 192Кбит/с
Аудио 2: Французский, AC3, 2 ch, 192 Кбит/с

MediaInfo

[code]
Формат : AVI
Формат/Информация : Audio Video Interleave
Размер файла : 222 Мбайт
Продолжительность : 1 ч. 21 м.
Общий поток : 3379 Кбит/сек
Программа кодирования : VirtualDubMod 1.5.4.1 (build 2178/release)
Библиотека кодирования : VirtualDubMod build 2178/release
Видео
Идентификатор : 0
Формат : MPEG-4 Visual
Профиль формата : Advanced [email protected]
Параметр BVOP формата : Нет
Параметр QPel формата : Нет
Параметр GMC формата : Без точки перехода
Параметр матрицы формата : Выборочная
Идентификатор кодека : XVID
Идентификатор кодека/Подсказка : XviD
Продолжительность : 1 ч. 21 м.
Ширина : 720 пикселей
Высота : 448 пикселей
Соотношение сторон : 1,607
Частота кадров : 25,000 кадров/сек
Цветовое пространство : YUV
Субдискретизация насыщенности : 4:2:0
Битовая глубина : 8 бит
Тип развёртки : Прогрессивная
Метод сжатия : С потерями
Библиотека кодирования : XviD 1.2.0.dev47 (UTC 2006-11-01)
Аудио #1
Идентификатор : 1
Формат : AC-3
Формат/Информация : Audio Coding 3
Расширение режима : CM (complete main)
Идентификатор кодека : 2000
Продолжительность : 1 ч. 21 м.
Вид битрейта : Постоянный
Битрейт : 192 Кбит/сек
Каналы : 2 канала
Расположение каналов : Front: L R
Частота : 48,0 КГц
Битовая глубина : 16 бит
Метод сжатия : С потерями
Размер потока : 112 Мбайт (51%)
Выравнивание : Разделение по промежуткам
Язык : Russian
Аудио #2
Идентификатор : 2
Формат : AC-3
Формат/Информация : Audio Coding 3
Расширение режима : CM (complete main)
Идентификатор кодека : 2000
Продолжительность : 1 ч. 21 м.
Вид битрейта : Постоянный
Битрейт : 192 Кбит/сек
Каналы : 2 канала
Расположение каналов : Front: L R
Частота : 48,0 КГц
Битовая глубина : 16 бит
Метод сжатия : С потерями
Размер потока : 112 Мбайт (51%)
Выравнивание : Разделение по промежуткам
Язык : French
Скриншоты:
         
         
-Время раздачи: 24/7
Вне форума [Профиль] [ЛС]
Показать сообщения:    
Ответить на тему

Текущее время: Сегодня 14:53

Часовой пояс: GMT + 3



Вы не можете начинать темы
Вы не можете отвечать на сообщения
Вы не можете редактировать свои сообщения
Вы не можете удалять свои сообщения
Вы не можете голосовать в опросах
Вы не можете прикреплять файлы к сообщениям
Вы не можете скачивать файлы