Сегодня идет свободное скачивание без начисления Download

Трюкач / The Stunt Man (1980) [H.264] HDRip

Ответить на тему
 
Автор
Сообщение

Omen ®

Стаж: 4 года 1 месяц

Сообщений: 194359

Торрент-статистика

Пост 09-Янв-2013 04:44

[Цитировать]

-Трюкач / The Stunt Man (1980) [H.264] HDRip- Русское название: Трюкач
Оригинальное название: The Stunt Man
Год выпуска: 1980
Страна: США
Жанр: боевик, триллер, драма, мелодрама, комедия
Перевод: Профессиональный: (полное дублирование) / советский дубляж-
Премьера:
27 июня 1980
Режиссер: Ричард Раш
Актеры: Питер О'Тул, Стив Рэйлсбэк, Барбара Хёрши, Аллен Гарфилд, Алекс Рокко, Шэрон Фаррелл, Адам Рорк, Филип Бранс, Чарлз Бейл, Джон Гарвуд, Дон Кеннеди, Уити Хьюз, Уолтер Роблз, Фрэнк Алива, Стаффорд Морган, Джон Олдермен, Ди Кэрролл, А.Дж. Бакунас

Описание фильма:
Камерон, спасаясь от полиции, встал на пути машины каскадера Берта, выполнявшего сложный трюк для фильма эксцентричного режиссера Элайи. Берт погиб, не успев вылезти из автомобиля, ушедшего под воду, и Элайя, для которого его картина превыше всего, предлагает Камерону заменить Берта в качестве дублера главной звезды, а взамен готов предоставить ему убежище на съемочной площадке.….
-Продолжительность: 02:10:41
Качество видео: HDRip-AVC
Формат: MKV
Видеокодек: MPEG-4 AVC
Битрейт видео: ~2917 kbps avg, 23.976 fps, 0.182 bit/pixel
Размер кадра: 1112x600 (1.853:1)
Аудиокодек: AC3
Аудио: 48 kHz, AC3 Dolby Digital, 2 ch, ~256.00 kbps avg
Субтитры: нет

Награды:

Оскар, 1981 год
Номинации (3):
Лучшая мужская роль (Питер О’Тул)
Лучший режиссер (Ричард Раш)
Лучший адаптированный сценарий
Золотой глобус, 1981 год
Победитель (1):
Лучший саундтрек
Номинации (5):
Лучшая мужская роль (драма) (Питер О’Тул)
Лучший фильм (драма)
Лучший режиссер (Ричард Раш)
Лучший сценарий
Мужской прорыв года (Стив Рейлсбэк)

MediaInfo:

Format : Matroska
File size : 2.90 GiB
Duration : 2h 10mn
Overall bit rate : 3 175 Kbps
Encoded date : UTC 2012-01-29 05:31:38
Writing library : libebml v1.2.0 + libmatroska v1.1.0
Video
ID : 1
Format : AVC
Format/Info : Advanced Video Codec
Format profile : [url=mailto:[email protected]][email protected][/url]
Format settings, CABAC : Yes
Format settings, ReFrames : 10 frames
Format settings, GOP : M=1, N=2
Codec ID : V_MPEG4/ISO/AVC
Duration : 2h 10mn
Bit rate : 2 917 Kbps
Width : 1 112 pixels
Height : 600 pixels
Display aspect ratio : 1.853
Frame rate : 23.976 fps
Color space : YUV
Chroma subsampling : 4:2:0
Bit depth : 8 bits
Scan type : Progressive
Bits/(Pixel*Frame) : 0.182
Stream size : 2.61 GiB (90%)
Writing library : x264 core 116 r2074 2641b9e
Encoding settings : cabac=1 / ref=10 / deblock=1:-2:-1 / analyse=0x3:0x133 / me=umh / subme=11 / psy=1 / psy_rd=1.00:0.10 / mixed_ref=1 / me_range=32 / chroma_me=1 / trellis=2 / 8x8dct=1 / cqm=0 / deadzone=21,11 / fast_pskip=0 / chroma_qp_offset=-3 / threads=12 / sliced_threads=0 / nr=0 / decimate=1 / interlaced=0 / bluray_compat=0 / constrained_intra=0 / bframes=8 / b_pyramid=2 / b_adapt=2 / b_bias=0 / direct=3 / weightb=1 / open_gop=0 / weightp=2 / keyint=250 / keyint_min=23 / scenecut=40 / intra_refresh=0 / rc_lookahead=80 / rc=2pass / mbtree=1 / bitrate=2917 / ratetol=1.0 / qcomp=0.60 / qpmin=0 / qpmax=69 / qpstep=4 / cplxblur=20.0 / qblur=0.5 / ip_ratio=1.40 / aq=1:1.00
Language : English
Audio
ID : 2
Format : AC-3
Format/Info : Audio Coding 3
Mode extension : CM (complete main)
Codec ID : A_AC3
Duration : 2h 10mn
Bit rate mode : Constant
Bit rate : 256 Kbps
Channel(s) : 2 channels
Channel positions : Front: L R
Sampling rate : 48.0 KHz
Bit depth : 16 bits
Compression mode : Lossy
Stream size : 239 MiB (8%)
Title : Dub
Скриншоты:
         
         
24/7
Вне форума [Профиль] [ЛС]
Показать сообщения:    
Ответить на тему

Текущее время: Сегодня 11:00

Часовой пояс: GMT + 3



Вы не можете начинать темы
Вы не можете отвечать на сообщения
Вы не можете редактировать свои сообщения
Вы не можете удалять свои сообщения
Вы не можете голосовать в опросах
Вы не можете прикреплять файлы к сообщениям
Вы не можете скачивать файлы