Сегодня идет свободное скачивание без начисления Download

Знаменитые любовные истории / Amours celebres (1961) VHSRip

Ответить на тему
 
Автор
Сообщение

Omen ®

Стаж: 4 года 1 месяц

Сообщений: 194382

Торрент-статистика

Пост 09-Янв-2013 04:44

[Цитировать]

-Знаменитые любовные истории / Amours celebres (1961) VHSRip- Русское название: Знаменитые любовные истории
Оригинальное название: Amours celebres
Год выпуска: 1961
Страна: Франция, Италия
Жанр: мелодрама, история-
Премьера (РФ): 3 ноября 1961
Режиссер: Мишель Буарон
Актеры: Филипп Нуаре, Жан-Поль Бельмондо, Бриджит Бардо, Ален Делон, Анни Жирардо, Симона Синьоре, Мишель Галабрю, Жан-Клод Бриали

Описание фильма:
Четыре новеллы из различных эпох.
"Пусть историки не рассматривают этот фильм сквозь свои толстые очки. Любовные письма не листают в канцелярских делах. Мы хотели не учить истории, а только помечтать какой бы она могла быть..."
-Продолжительность: 01:55:39
Качество видео: VHSRip
Видеокодек: XviD
Формат: AVI
Битрейт видео: ~1557 kbps avg
Размер кадра: 608x272 (2,25:1)
Аудиокодек: MP3
Битрейт аудио: 48 kHz, MP3, 2 ch, ~128.00 kbps avg
Субтитры: отсутствуют

MediaInfo:

Формат : AVI
Формат/Информация : Audio Video Interleave
Размер файла : 1,37 Гбайт
Продолжительность : 1 ч. 55 м.
Общий поток : 1692 Кбит/сек
Программа кодирования : VirtualDubMod 1.5.4.1 (build 2178/release)
Библиотека кодирования : VirtualDubMod build 2178/release
Видео
Идентификатор : 0
Формат : MPEG-4 Visual
Профиль формата : Advanced [email protected]
Параметр BVOP формата : 1
Параметр QPel формата : Нет
Параметр GMC формата : Без точки перехода
Параметр матрицы формата : Выборочная
Идентификатор кодека : XVID
Идентификатор кодека/Подсказка : XviD
Продолжительность : 1 ч. 55 м.
Битрейт : 1557 Кбит/сек
Ширина : 608 пикселей
Высота : 272 пикселя
Соотношение сторон : 2,25:1
Частота кадров : 25,000 кадров/сек
Цветовое пространство : YUV
Субдискретизация насыщенности : 4:2:0
Битовая глубина : 8 бит
Тип развёртки : Прогрессивная
Метод сжатия : С потерями
Бит/(Пиксели*Кадры) : 0.377
Размер потока : 1,26 Гбайт (92%)
Библиотека кодирования : XviD 1.0.3 (UTC 2004-12-20)
Аудио
Идентификатор : 1
Формат : MPEG Audio
Версия формата : Version 1
Профиль формата : Layer 3
Режим : Joint stereo
Расширение режима : MS Stereo
Идентификатор кодека : 55
Идентификатор кодека/Подсказка : MP3
Продолжительность : 1 ч. 55 м.
Вид битрейта : Постоянный
Битрейт : 128 Кбит/сек
Каналы : 2 канала
Частота : 48,0 КГц
Метод сжатия : С потерями
Размер потока : 106 Мбайт (8%)
Выравнивание : Соединение по промежуткам
Продолжительность промежутка : 80 мс. (2,00 видеокадра)
Время предзагрузки промежутка : 504 мс.
Скриншоты:
         
         
Время раздачи: 24/7
Вне форума [Профиль] [ЛС]
Похожие темы
Форум Тема Автор Торрент Отв. Посл. сообщение
./templates/default/images/folder_dl.gif ЖЗЛ. Биографии. Мемуары. Историография. В.М.Скляренко и др. | 100 знаменитых женщин [2008] [FB2] sashau
1 | 0

0 | 543

5

2013-04-06 17:36
sashau Последнее
./templates/default/images/folder_dl.gif ЖЗЛ. Биографии. Мемуары. Историография. Дмитрий Таболкин | 100 знаменитых американцев [2008] [FB2] sashau
1 | 0

0 | 765

2

2013-04-06 17:38
sashau Последнее
./templates/default/images/folder_dl.gif ЖЗЛ. Биографии. Мемуары. Историография. Виктор Савченко | 100 знаменитых анархистов и революционеров [2008] [FB2] sashau
1 | 0

0 | 728

1

2013-04-06 17:40
sashau Последнее
./templates/default/images/folder_dl.gif ЖЗЛ. Биографии. Мемуары. Историография. В.М.Скляренко и др. | 100 знаменитых евреев [2008] [FB2] sashau
1 | 0

0 | 562

5

2013-04-06 17:58
sashau Последнее
./templates/default/images/folder_dl.gif Психология, Тренинг, Саморазвитие Кэтрин Грейс | Жизнь по помидору. Знаменитые системы тайм-менеджмента простыми словами (2016) [FB2] [email protected]
1 | 0

0 | 294

3

2016-11-25 18:56
[email protected] Последнее
Показать сообщения:    
Ответить на тему

Текущее время: Сегодня 20:25

Часовой пояс: GMT + 3



Вы не можете начинать темы
Вы не можете отвечать на сообщения
Вы не можете редактировать свои сообщения
Вы не можете удалять свои сообщения
Вы не можете голосовать в опросах
Вы не можете прикреплять файлы к сообщениям
Вы не можете скачивать файлы