Сегодня идет свободное скачивание без начисления Download

Прощай, полицейский / Adieu, poulet (1975) [H.264] DVDRip

Ответить на тему
 
Автор
Сообщение

Omen ®

Стаж: 4 года 1 месяц

Сообщений: 194394

Торрент-статистика

Пост 09-Янв-2013 04:44

[Цитировать]

-Прощай, полицейский / Adieu, poulet (1975) [H.264] DVDRip- Русское название: Прощай, полицейский
Оригинальное название: Adieu, poulet
Год выпуска: 1975
Жанр: Драма, Криминал, Боевик
Страна: Франция
Производство: Les Films Ariane, Mondex Films
Описание фильма:
Остросюжетная полицейская история о жестком, независимом детективе Вержа. В борьбе с криминалом он практикует методы, которые порой мало отличаются от методов преступного мира.
Расследуя вместе со своим молодым напарником одно запутанное дело, Вержа выходит на банду, связанную с очень влиятельным политиком. Ситуация осложняется приказом о переводе его в другой город. У него остается слишком мало времени, чтобы разоблачить коррупционеров…
Режиссер: Пьер Гранье-Дефер
Сценарий: Франсис Вебер, Раф Валле
Продюсер: Роберт Амон, Жорж Дансижер, Александр Мнушкин
Актеры: Лино Вентура, Патрик Девэр, Виктор Лану, Жюльен Гиомар, Пьер Торнад, Франсуаз Брион, Клод Риш, Мишель Пейрелон, Клод Броссе, Жерар Эрольд
Роли дублировали: Армен Джигарханян, Евгений Жариков, Владимир Гусев, Юрий Пузырев,Юрий Чекулаев, Александр Белявский, Рудольф Панков
Продолжительность: 01:27:12
Перевод: Дублированный
Субтитры: Отсутствуют
* вырезанные моменты сов. цензурой переведены многоголоской

Дата мировой премьеры: 10 декабря 1975
Дата выхода DVD релиза: 28 октября 2011, «Cinema Prestige»
Видеокодек: MPEG-4 AVC/H.264
Битрейт видео: ~2399 Кбит/сек
Размер кадра: 720x432
Качество видео: DVDRip
Аудиокодек: AC3 2.0
Битрейт аудио: 192 kbps

Знаете ли вы, что...

Фильм снят "по мотивам" произведения Р.Валле и весьма сильно отличается от литературного первоисточника.

Реценция с кинопоиска от Aitomosia:

Суровые серые будни.
Очередной фильм о полицейских. И снова Лино Вентура играет честного комиссара полиции. Комиссару Вержа уже 50 лет. У него большой опыт работы и не слабый послужной список.
На сей раз предвыборная кампания, убийство, влиятельные правые силы, стоящие за спинами убийц. А наш бесстрашный герой вступает в борьбу с преступниками. В его нелегком труде помогает молодой, полный энергии помощник в исполнении Патрика Деваэра. Они вдвоем ведут упорную борьбу с преступностью.
Но когда наконец комиссару удается убедить одного из участников преступления дать показания, проливающие свет на истинных виновников, его переводят на службу в другое место, в Монпелье, причем с повышением, и он становится бессильным продолжить начатое дело.
Очень убедителен Лино Вентура в роли комиссара, да и Деваэр тоже. Неплохой фильм о суровых буднях полиции.

Награды:

Сезар, 1976 год
Номинации (3):
Лучший актер второго плана (Патрик Девэр)
Лучший актер второго плана (Виктор Лану)
Лучший монтаж

MediaInfo:

Общее
Уникальный идентификатор : 177397580837895698325485837702222149876 (0x8575880342C3CEE5A5A9B398D4A578F4)
Полное имя : E:\Прощай полицейский.mkv
Формат : Matroska
Версия формата : Version 2
Размер файла : 1,58 Гбайт
Продолжительность : 1 ч. 27 м.
Общий поток : 2592 Кбит/сек
Дата кодирования : UTC 2012-11-25 09:25:41
Программа кодирования : mkvmerge v5.7.0 ('The Whirlwind') built on Jul 29 2012 15:12:35
Библиотека кодирования : libebml v1.2.3 + libmatroska v1.3.0
Видео
Идентификатор : 1
Формат : AVC
Формат/Информация : Advanced Video Codec
Профиль формата : [url=mailto:[email protected]][email protected][/url]
Параметр CABAC формата : Да
Параметр ReFrames формата : 5 кадров
Режим смешивания : Header stripping
Идентификатор кодека : V_MPEG4/ISO/AVC
Продолжительность : 1 ч. 27 м.
Битрейт : 2399 Кбит/сек
Ширина : 720 пикселей
Высота : 432 пикселя
Соотношение сторон : 1,667
Режим частоты кадров : Постоянный
Частота кадров : 25,000 кадров/сек
Цветовое пространство : YUV
Субдискретизация насыщенности : 4:2:0
Битовая глубина : 8 бит
Тип развёртки : Прогрессивная
Бит/(Пиксели*Кадры) : 0.309
Размер потока : 1,43 Гбайт (91%)
Заголовок : Adieu poulet
Библиотека кодирования : x264 core 125 r2200 999b753
Настройки программы : cabac=1 / ref=5 / deblock=1:-1:-1 / analyse=0x3:0x113 / me=umh / subme=8 / psy=1 / psy_rd=1.00:0.15 / mixed_ref=1 / me_range=16 / chroma_me=1 / trellis=1 / 8x8dct=1 / cqm=0 / deadzone=21,11 / fast_pskip=1 / chroma_qp_offset=-3 / threads=3 / lookahead_threads=1 / sliced_threads=0 / nr=0 / decimate=1 / interlaced=0 / bluray_compat=0 / constrained_intra=0 / bframes=3 / b_pyramid=2 / b_adapt=2 / b_bias=0 / direct=3 / weightb=1 / open_gop=0 / weightp=2 / keyint=250 / keyint_min=25 / scenecut=40 / intra_refresh=0 / rc_lookahead=50 / rc=2pass / mbtree=1 / bitrate=2399 / ratetol=1.0 / qcomp=0.60 / qpmin=0 / qpmax=69 / qpstep=4 / cplxblur=20.0 / qblur=0.5 / ip_ratio=1.40 / aq=1:1.00
Язык : French
Default : Да
Forced : Нет
Аудио
Идентификатор : 2
Формат : AC-3
Формат/Информация : Audio Coding 3
Расширение режима : CM (complete main)
Параметр Endianness формата : Big
Режим смешивания : Header stripping
Идентификатор кодека : A_AC3
Продолжительность : 1 ч. 27 м.
Вид битрейта : Постоянный
Битрейт : 192 Кбит/сек
Каналы : 2 канала
Расположение каналов : Front: L R
Частота : 48,0 КГц
Битовая глубина : 16 бит
Метод сжатия : С потерями
Размер потока : 120 Мбайт (7%)
Заголовок : Дублированный
Язык : Russian
Default : Да
Forced : Нет
Скриншоты:                    Время раздачи: с 12:00 до 24:00 по Москве (выходные круглосуточно), до 10 скачавших
Вне форума [Профиль] [ЛС]
Показать сообщения:    
Ответить на тему

Текущее время: Сегодня 22:48

Часовой пояс: GMT + 3



Вы не можете начинать темы
Вы не можете отвечать на сообщения
Вы не можете редактировать свои сообщения
Вы не можете удалять свои сообщения
Вы не можете голосовать в опросах
Вы не можете прикреплять файлы к сообщениям
Вы не можете скачивать файлы