Сегодня идет свободное скачивание без начисления Download

Все или ничего / Double or Nothing (1937) DVDRip

Ответить на тему
 
Автор
Сообщение

Omen ®

Стаж: 4 года 1 месяц

Сообщений: 194359

Торрент-статистика

Пост 09-Янв-2013 04:44

[Цитировать]

-Все или ничего / Double or Nothing (1937) DVDRip- Русское название: Все или ничего
Оригинальное название: Double or Nothing
Год выпуска: 1937
Страна: США
Жанр: Комедия, Мелодрама
Описание фильма:
Эксцентричный миллионер, меценат Аксель Кларк хотел доказать, что все люди, в основном, честные и хорошие. После смерти, согласно его воле, адвокаты разбрасывают в разных местах города 25 кошельков, в каждом из которых $ 100, и визитная карточка с телефонным номером и адресом адвокатов. Нашлось четыре порядочных человека, которые возвращают кошельки и неожиданно оказываются затянутыми, в своего рода, лотерею. Завещание гласило — первый человек, который сможет честным путем удвоить выданную сумму в размере $ 5 000 в течение одного месяца, унаследуют все имущество Кларка. В противном случае, все имущество пойдет жадному брату Кларка, который полон решимости сорвать этот план.
Музыкальная комедия, в которой были исполнены такие композиции как: «It's On, It's Off», «Double or Nothing», «Listen My Children», «Smarty», «The Moon Got in My Eyes» и «After You».

Режиссер: Теодор Рид
Актеры: Бинг Кросби, Марта Рэй, Энди Дивайн, Мэри Карлайл, Уильям Фроули, Бенни Бэйкер, Сэмюэл С. Хиндс, Уильям Генри, Фэй Холден, Берт Хэнлон, Фрэнсис Фэй, Гэри Бэррис, Артур Хаусман, Гилберт Эмери, Стэнли Эндрюс, Бесс Флауэрс, Макк Грэй, Дэннис О`Кифи, Ларри Стирс, Ник Арно

Продолжительность: 01:30:38
Перевод: Двуголосый закадровый

Дата мировой премьеры: 1 сентября 1937
Дата выхода DVD релиза: 1 марта 2010
Видеокодек: Xvid
Битрейт видео: ~1835 kbps
Размер кадра: 704x528
Качество видео: DVDRip
Аудиокодек: MP3,2ch
Битрейт аудио: ~320.00 kbps

MI

Общее
Полное имя : C:\Users\1\Downloads\Vse.ili.nichego.1937.avi
Формат : AVI
Формат/Информация : Audio Video Interleave
Размер файла : 1,37 Гбайт
Продолжительность : 1 ч. 30 м.
Общий поток : 2164 Кбит/сек
Программа кодирования : VirtualDubMod 1.5.4.1 (build 2178/release)
Библиотека кодирования : VirtualDubMod build 2178/release
Видео
Идентификатор : 0
Формат : MPEG-4 Visual
Профиль формата : Advanced [email protected]
Параметр BVOP формата : 1
Параметр QPel формата : Нет
Параметр GMC формата : Без точки перехода
Параметр матрицы формата : Выборочная
Идентификатор кодека : XVID
Идентификатор кодека/Подсказка : XviD
Продолжительность : 1 ч. 30 м.
Битрейт : 1835 Кбит/сек
Ширина : 704 пикселя
Высота : 528 пикселей
Соотношение сторон : 4:3
Частота кадров : 29,970 кадров/сек
Цветовое пространство : YUV
Субдискретизация насыщенности : 4:2:0
Битовая глубина : 8 бит
Тип развёртки : Прогрессивная
Метод сжатия : С потерями
Бит/(Пиксели*Кадры) : 0.165
Размер потока : 1,16 Гбайт (85%)
Библиотека кодирования : XviD 1.2.1 (UTC 2008-12-04)
Аудио
Идентификатор : 1
Формат : MPEG Audio
Версия формата : Version 1
Профиль формата : Layer 3
Режим : Joint stereo
Расширение режима : MS Stereo
Идентификатор кодека : 55
Идентификатор кодека/Подсказка : MP3
Продолжительность : 1 ч. 30 м.
Вид битрейта : Постоянный
Битрейт : 320 Кбит/сек
Каналы : 2 канала
Частота : 44,1 КГц
Метод сжатия : С потерями
Размер потока : 207 Мбайт (15%)
Выравнивание : Разделение по промежуткам
Продолжительность промежутка : 67 мс. (2,00 видеокадра)
Время предзагрузки промежутка : 500 мс.
Библиотека кодирования : LAME3.97
Скриншоты:
         
Вне форума [Профиль] [ЛС]
Показать сообщения:    
Ответить на тему

Текущее время: Сегодня 05:10

Часовой пояс: GMT + 3



Вы не можете начинать темы
Вы не можете отвечать на сообщения
Вы не можете редактировать свои сообщения
Вы не можете удалять свои сообщения
Вы не можете голосовать в опросах
Вы не можете прикреплять файлы к сообщениям
Вы не можете скачивать файлы