Сегодня идет свободное скачивание без начисления Download

По широкой Миссури / Across the Wide Missouri (1951) [H.264] DVDRip

Ответить на тему
 
Автор
Сообщение

Omen ®

Стаж: 4 года 1 месяц

Сообщений: 194390

Торрент-статистика

Пост 09-Янв-2013 13:40

[Цитировать]

-По широкой Миссури / Across the Wide Missouri (1951) [H.264] DVDRip- Русское название: По широкой Миссури
Оригинальное название: Across the Wide Missouri
Год выпуска: 1951
Жанр: Мелодрама, Приключения, Вестерн
Страна: США
Производство: Loew's Inc., Metro-Goldwyn-Mayer (MGM)
Описание фильма:
У подножия Скалистых гор, расположенных вдоль реки Миссури, раз в году собирались охотники-горцы для продажи своей добычи. Они поддерживали дружеские отношения с коренным населением — индейцами племени «чернопятых». Один из горцев получает в жены аборигенку Камию, заплатив за нее солидный выкуп. Вождь племени недоволен, но поделать ничего не может, так как дед Камии, почитаемый всеми шаман, принял ее нового мужа.
Режиссер: Уильям А. Уэллмен
Сценарий: Талбот Дженнингс, Бернард Девото, Фрэнк Каветт
Продюсер: Роберт Сиск
Актеры: Кларк Гейбл, Рикардо Монтальбан, Джон Ходиак, Адольф Менжу, Дж. Кэролл Нейш, Джек Холт, Алан Напье, Джордж Чандлер, Ричард Андерсон, Мария Елена Маркиз
Продолжительность: 01:18:19
Перевод: Двуголосый закадровый (студия Пифагор по заказу ГТРК "Культура")
Субтитры: Отсутствуют

Дата мировой премьеры: 1 октября 1951
Видеокодек: MPEG-4 AVC/H.264
Битрейт видео: ~2449 Кбит/сек
Размер кадра: 640x464
Качество видео: DVDRip
Аудиокодек: AC3 2.0
Битрейт аудио: 192 kbps

MediaInfo:

Общее
Уникальный идентификатор : 253979267948016887625919727377773230528 (0xBF12A0B3889228459251DA2351E3F9C0)
Полное имя : D:\Downloads\По широкой Миссури.mkv
Формат : Matroska
Версия формата : Version 2
Размер файла : 1,45 Гбайт
Продолжительность : 1 ч. 18 м.
Общий поток : 2642 Кбит/сек
Дата кодирования : UTC 2013-01-09 08:13:54
Программа кодирования : mkvmerge v5.7.0 ('The Whirlwind') built on Jul 29 2012 15:12:35
Библиотека кодирования : libebml v1.2.3 + libmatroska v1.3.0
Видео
Идентификатор : 1
Формат : AVC
Формат/Информация : Advanced Video Codec
Профиль формата : [url=mailto:[email protected]][email protected][/url]
Параметр CABAC формата : Да
Параметр ReFrames формата : 8 кадров
Режим смешивания : Header stripping
Идентификатор кодека : V_MPEG4/ISO/AVC
Продолжительность : 1 ч. 18 м.
Битрейт : 2449 Кбит/сек
Ширина : 640 пикселей
Высота : 464 пикселя
Соотношение сторон : 1,379
Режим частоты кадров : Постоянный
Частота кадров : 23,976 кадра/сек
Цветовое пространство : YUV
Субдискретизация насыщенности : 4:2:0
Битовая глубина : 8 бит
Тип развёртки : Прогрессивная
Бит/(Пиксели*Кадры) : 0.344
Размер потока : 1,31 Гбайт (91%)
Заголовок : Across the Wide Missouri
Библиотека кодирования : x264 core 129 r2230 1cffe9f
Настройки программы : cabac=1 / ref=8 / deblock=1:-1:-1 / analyse=0x3:0x133 / me=umh / subme=9 / psy=1 / psy_rd=1.00:0.15 / mixed_ref=1 / me_range=16 / chroma_me=1 / trellis=2 / 8x8dct=1 / cqm=0 / deadzone=21,11 / fast_pskip=1 / chroma_qp_offset=-3 / threads=3 / lookahead_threads=1 / sliced_threads=0 / nr=0 / decimate=1 / interlaced=0 / bluray_compat=0 / constrained_intra=0 / bframes=3 / b_pyramid=2 / b_adapt=2 / b_bias=0 / direct=3 / weightb=1 / open_gop=0 / weightp=2 / keyint=240 / keyint_min=23 / scenecut=40 / intra_refresh=0 / rc_lookahead=60 / rc=2pass / mbtree=1 / bitrate=2449 / ratetol=1.0 / qcomp=0.60 / qpmin=0 / qpmax=69 / qpstep=4 / cplxblur=20.0 / qblur=0.5 / ip_ratio=1.40 / aq=1:1.00
Язык : English
Default : Да
Forced : Нет
Аудио
Идентификатор : 2
Формат : AC-3
Формат/Информация : Audio Coding 3
Расширение режима : CM (complete main)
Параметр Endianness формата : Big
Режим смешивания : Header stripping
Идентификатор кодека : A_AC3
Продолжительность : 1 ч. 18 м.
Вид битрейта : Постоянный
Битрейт : 192 Кбит/сек
Каналы : 2 канала
Расположение каналов : Front: L R
Частота : 48,0 КГц
Битовая глубина : 16 бит
Метод сжатия : С потерями
Размер потока : 108 Мбайт (7%)
Заголовок : Профессиональный (двухголосый закадровый) - студия Пифагор по заказу ГТРК "Культура"
Язык : Russian
Default : Да
Forced : Нет
Скриншоты:                    Время раздачи: с 12:00 до 24:00 по Москве (выходные круглосуточно), до 10 скачавших
Вне форума [Профиль] [ЛС]
Показать сообщения:    
Ответить на тему

Текущее время: Сегодня 08:54

Часовой пояс: GMT + 3



Вы не можете начинать темы
Вы не можете отвечать на сообщения
Вы не можете редактировать свои сообщения
Вы не можете удалять свои сообщения
Вы не можете голосовать в опросах
Вы не можете прикреплять файлы к сообщениям
Вы не можете скачивать файлы