Сегодня идет свободное скачивание без начисления Download

Приходи в сентябре / Come September (1961) [H.264] DVDRip

Ответить на тему
 
Автор
Сообщение

Omen ®

Стаж: 4 года 1 месяц

Сообщений: 194394

Торрент-статистика

Пост 10-Янв-2013 14:36

[Цитировать]

-Приходи в сентябре / Come September (1961) [H.264] DVDRip-«A Quiet hideaway... A Secret rendezvous... then the teen-agers barged in!»- Русское название: Приходи в сентябре
Оригинальное название: Come September
Год выпуска: 1961
Жанр: Мелодрама, Комедия
Страна: США
Производство: 7 Pictures Corporation, Raoul Walsh Enterprises, Universal International Pictures
Описание фильма:
Каждый год в сентябре нью-йоркский бизнесмен приезжает на свою виллу в Италии, чтобы отдохнуть и провести время со своей римской подругой. Но однажды в июле, когда он появляется без предупреждения, его ждет огромный сюрприз! За время его отсутствия роскошная вилла превратилась в гостиницу.
Более того, в списке гостей, проживающих в ней, значится компания юных американок и настойчиво ухаживающих за ними парней. Отчаянно пытаясь взять ситуацию под контроль, Хадсон в результате теряет свое право на частную жизнь, свою подружку и едва ли не рассудок. До тех пор, пока ему не удается выработать собственный план.
Режиссер: Роберт Маллиган
Сценарий: Стэнли Шапиро, Морис Ричлин, Стэнли Робертс
Продюсер: Роберт Артур, Рауль Уолш, Генри Вилсон
Актеры: Рок Хадсон, Джина Лоллобриджида, Сандра Ди, Бобби Дэрин, Уолтер Слезак, Бренда Де Банзи, Розанна Рори, Рональд Ховард, Джоэл Грей, Ронни Харан
Продолжительность: 01:48:49
Перевод: Многоголосый закадровый
Субтитры: Отсутствуют

Дата мировой премьеры: 9 августа 1961
Дата выхода DVD релиза: 18 ноября 2008, «Юниверсал Пикчерс Рус»
Видеокодек: MPEG-4 AVC/H.264
Битрейт видео: ~2199 Кбит/сек
Размер кадра: 720x304
Качество видео: DVDRip
Аудиокодек: AC3 2.0
Битрейт аудио: 192 kbps

Реценция с кинопоиска от odissey1030:

Легко о важном
Фильм достаточно удивителен — лёгкая комедия по жанру, он генерирует множество цитат, которые полезно запомнить и просто услышать. У картины есть посыл, пусть и замаскированный условностями жанра!
Так получилось что при получении фильма я машинально поместил его в итальянскую рубрику, и даже после просмотра (титры не смотрел), ничего не заподозрил. Только после успешного просмотра, развеявшего мрачное настроение усталой жены, начал изучать данные и понял, что всё здесь — американское, кроме места съёмок и Джины. На подобных фильмах и держится до сих пор мнение, что американское кино — велико, полагаю. Американизмы практически отсутствуют, американцы — обычны, заурядны, скромны! Скромность — вот истинный спутник успеха. Будьте скромны, как кино-американцы — и мир к вам потянется. Что-то этот призыв не популярен в наше время ? Практически фильм получился совместного итало-голливудского производства. Возможно, именно итальянский шарм и обеспечил такой успех. Для подтверждения вспомним европейский интерьер ещё одного удачного фильма «Отпетые мошенники».
По фильму рассыпаны множество находок, как в виде эпизодов, так и в виде множества идей, развивающихся параллельно и сплетающихся в момент развязки.
Так, сцена «психоанализа» — одна из самых ярких и смешных, и одновременно она, на мой взгляд, конечно, очень чётко демонстрирует основные методы и цели данного занятия.
Одним из самых весёлых моментов фильма является способность управляющего виллой выкручиваться из почти безвыходных ситуаций.
Любопытный момент — иногда по сюжету разговор идёт на итальянском языке и перевода при этом не требуется по сценарию. Тем не менее, всё понятно. Такие моменты воодушевят любого зрителя. Польстить ему — большое искусство. В этой картине режиссёру это удалось.
Кстати, отличная озвучка, внятная и неравнодушная. Высокое качество видеоизображения.
Ещё один подарок картины — игра Рока Хадсона. Его типаж больше пригоден для съёмок вестернов. Кажется, что любое движение лица и души должно доставлять ему ощутимые усилия, но тем не менее, здесь он удачен, играет легко и непринуждённо. Полностью соответствует Джине, которая здесь достаточно обычна и ожидаема, хотя и по прежнему привлекательна. Его же герой как человек- симпатичен. При этом он оставляет впечатление стандартного американца в Европе, что крайне необычно по жизни. Роль получилась многозначительнее, чем у Джины. Впрочем, это — сценарий!
P.S. — Название «La Dolce Vista» — сладкий (красивый) вид по итальянски, кажется. Название соответствует.
P.P.S. Прочие фильмы этого режиссёра. просмотренные под влиянием данного фильма, никакого восторга у меня не вызвали, к сожалению. Ну что-же. достаточно и одного шедевра. У большинства и одного не получается!
Таким образом, это — одна из лучших комедий для универсальной аудитории, да ещё и содержат внутренний посыл. Рекомендую к просмотру всем, желающим расслабиться, получить удовольствие и чему-то удивиться. Смотреть можно с женой и, возможно, даже тёщей.
10 из 10

MediaInfo:

Общее
Уникальный идентификатор : 200150046042341426330066474013144110135 (0x96937F28040CAC6CA64137968667D437)
Полное имя : D:\Downloads\Приходи в сентябре.mkv
Формат : Matroska
Версия формата : Version 2
Размер файла : 1,82 Гбайт
Продолжительность : 1 ч. 48 м.
Общий поток : 2392 Кбит/сек
Дата кодирования : UTC 2013-01-10 08:26:15
Программа кодирования : mkvmerge v5.7.0 ('The Whirlwind') built on Jul 29 2012 15:12:35
Библиотека кодирования : libebml v1.2.3 + libmatroska v1.3.0
Видео
Идентификатор : 1
Формат : AVC
Формат/Информация : Advanced Video Codec
Профиль формата : [url=mailto:[email protected]][email protected][/url]
Параметр CABAC формата : Да
Параметр ReFrames формата : 8 кадров
Режим смешивания : Header stripping
Идентификатор кодека : V_MPEG4/ISO/AVC
Продолжительность : 1 ч. 48 м.
Битрейт : 2199 Кбит/сек
Ширина : 720 пикселей
Высота : 304 пикселя
Соотношение сторон : 2,35:1
Режим частоты кадров : Постоянный
Частота кадров : 25,000 кадров/сек
Цветовое пространство : YUV
Субдискретизация насыщенности : 4:2:0
Битовая глубина : 8 бит
Тип развёртки : Прогрессивная
Бит/(Пиксели*Кадры) : 0.402
Размер потока : 1,64 Гбайт (90%)
Заголовок : Come September
Библиотека кодирования : x264 core 129 r2230 1cffe9f
Настройки программы : cabac=1 / ref=8 / deblock=1:-1:-1 / analyse=0x3:0x133 / me=umh / subme=9 / psy=1 / psy_rd=1.00:0.15 / mixed_ref=1 / me_range=16 / chroma_me=1 / trellis=2 / 8x8dct=1 / cqm=0 / deadzone=21,11 / fast_pskip=1 / chroma_qp_offset=-3 / threads=3 / lookahead_threads=1 / sliced_threads=0 / nr=0 / decimate=1 / interlaced=0 / bluray_compat=0 / constrained_intra=0 / bframes=3 / b_pyramid=2 / b_adapt=2 / b_bias=0 / direct=3 / weightb=1 / open_gop=0 / weightp=2 / keyint=250 / keyint_min=25 / scenecut=40 / intra_refresh=0 / rc_lookahead=60 / rc=2pass / mbtree=1 / bitrate=2199 / ratetol=1.0 / qcomp=0.60 / qpmin=0 / qpmax=69 / qpstep=4 / cplxblur=20.0 / qblur=0.5 / ip_ratio=1.40 / aq=1:1.00
Язык : English
Default : Да
Forced : Нет
Аудио
Идентификатор : 2
Формат : AC-3
Формат/Информация : Audio Coding 3
Расширение режима : CM (complete main)
Параметр Endianness формата : Big
Режим смешивания : Header stripping
Идентификатор кодека : A_AC3
Продолжительность : 1 ч. 48 м.
Вид битрейта : Постоянный
Битрейт : 192 Кбит/сек
Каналы : 2 канала
Расположение каналов : Front: L R
Частота : 48,0 КГц
Битовая глубина : 16 бит
Метод сжатия : С потерями
Размер потока : 149 Мбайт (8%)
Заголовок : Многоголосый закадровый
Язык : Russian
Default : Да
Forced : Нет
Скриншоты:                    
Вне форума [Профиль] [ЛС]
Похожие темы
Форум Тема Автор Торрент Отв. Посл. сообщение
./templates/default/images/folder_dl.gif Pop (Поп / Детские песни) VA - Лучшие песни для детей - Приходи сказка (2009) - 2009, MP3, 256 kbps Delia
1 | 0

0 | 1473

55

2010-04-23 19:37
Delia Последнее
Показать сообщения:    
Ответить на тему

Текущее время: Сегодня 13:11

Часовой пояс: GMT + 3



Вы не можете начинать темы
Вы не можете отвечать на сообщения
Вы не можете редактировать свои сообщения
Вы не можете удалять свои сообщения
Вы не можете голосовать в опросах
Вы не можете прикреплять файлы к сообщениям
Вы не можете скачивать файлы