Сегодня идет свободное скачивание без начисления Download

Солянка по-кентуккийски / The Kentucky Fried Movie (1977) DVDRip

Ответить на тему
 
Автор
Сообщение

Omen ®

Стаж: 4 года 1 месяц

Сообщений: 194394

Торрент-статистика

Пост 10-Янв-2013 21:56

[Цитировать]

-Солянка по-кентуккийски / The Kentucky Fried Movie (1977) DVDRip
«This movie is totally out of control!»
- Русское название: Солянка по-кентуккийски
Оригинальное название: The Kentucky Fried Movie
Год выпуска: 1977
Производство: США, KFM Films, Kentucky Fried Theatre
Жанр: Комедия
Перевод: Профессиональный (многоголосый, закадровый), авторский (одноголосый закадровый)
Субтитры: Отсутствуют
Режиссер: Джон Лэндис
Актеры: Мэрилин Джои, Сауль Кэхэн, Дэвид Цукер, Марси Голдман, Дульси Джордан, Грация Ли, Шила Роджерс, Бэрри Деннен, Колин Мейл, Эд Гриффит, Роберт Старр, Ричард Гейтс, Нил Томпсон
Описание фильма:
Безумно веселая комедия, в которой умопомрачительная плотность юмора — десять шуток-гэгов в минуту. И так — от первого кадра до последнего.
Это солянка из всего сразу. Объекты безжалостных издевательств авторов — политические, экстремальные и прочие телешоу, новостные программы с нелепыми прямыми включениями, передачи вроде «В мире животных» и «В мире приключений», прогнозы астрологов. А также фильмы — кун-фу, катастрофы, боевики, драмы и даже классический Голливуд — ничего святого!
И, конечно, реклама, как невинная, например, пропагандирующая чудо-лекарства, так и неприличная, в подробностях излагающая содержание эротического блокбастера «Чудо-девчушки из католического колледжа»…- -Продолжительность: 01:23:23
Качество видео: DVDRip
Видеокодек: DivX 5
Битрейт видео: 1958 Кбит/сек
Размер кадра: 720x400
Аудио 1: Русский, AC3, 2 ch, 192 Кбит/сек Профессиональный (многоголосый, закадровый)
Аудио 2: Русский, AC3, 2 ch, 192 Кбит/сек Авторский (одноголосый закадровый) А.Михалев

MediaInfo

Код:
Общее
Полное имя                               : E:\Раздачи\Видео\Солянка по-кентуккийски (1977) DVDRip.avi
Формат                                   : AVI
Формат/Информация                        : Audio Video Interleave
Размер файла                             : 1,37 Гбайт
Продолжительность                        : 1 ч. 23 м.
Общий поток                              : 2350 Кбит/сек
Программа кодирования                    : VirtualDubMod 1.5.4.1 (build 2178/release)
Библиотека кодирования                   : VirtualDubMod build 2178/release
Видео
Идентификатор                            : 0
Формат                                   : MPEG-4 Visual
Параметр BVOP формата                    : 1
Параметр QPel формата                    : Нет
Параметр GMC формата                     : Без точки перехода
Параметр матрицы формата                 : Default (H.263)
Режим смешивания                         : Сжатый битовый поток
Идентификатор кодека                     : DX50
Идентификатор кодека/Подсказка           : DivX 5
Продолжительность                        : 1 ч. 23 м.
Битрейт                                  : 1958 Кбит/сек
Ширина                                   : 720 пикселей
Высота                                   : 400 пикселей
Соотношение сторон                       : 16:9
Частота кадров                           : 23,976 кадра/сек
Цветовое пространство                    : YUV
Субдискретизация насыщенности            : 4:2:0
Битовая глубина                          : 8 бит
Тип развёртки                            : Прогрессивная
Метод сжатия                             : С потерями
Бит/(Пиксели*Кадры)                      : 0.283
Размер потока                            : 1,14 Гбайт (83%)
Библиотека кодирования                   : DivX 6.8.5 (UTC 2009-08-20)
Аудио #1
Идентификатор                            : 1
Формат                                   : AC-3
Формат/Информация                        : Audio Coding 3
Расширение режима                        : CM (complete main)
Параметр Endianness формата              : Big
Идентификатор кодека                     : 2000
Продолжительность                        : 1 ч. 23 м.
Вид битрейта                             : Постоянный
Битрейт                                  : 192 Кбит/сек
Каналы                                   : 2 канала
Расположение каналов                     : Front: L R
Частота                                  : 48,0 КГц
Битовая глубина                          : 16 бит
Метод сжатия                             : С потерями
Размер потока                            : 115 Мбайт (8%)
Выравнивание                             : Разделение по промежуткам
Продолжительность промежутка             : 96  мс. (2,30 видеокадра)
Время предзагрузки промежутка            : 96  мс.
Язык                                     : Russian
Аудио #2
Идентификатор                            : 2
Формат                                   : AC-3
Формат/Информация                        : Audio Coding 3
Расширение режима                        : CM (complete main)
Параметр Endianness формата              : Big
Идентификатор кодека                     : 2000
Продолжительность                        : 1 ч. 23 м.
Вид битрейта                             : Постоянный
Битрейт                                  : 192 Кбит/сек
Каналы                                   : 2 канала
Расположение каналов                     : Front: L R
Частота                                  : 48,0 КГц
Битовая глубина                          : 16 бит
Метод сжатия                             : С потерями
Размер потока                            : 115 Мбайт (8%)
Выравнивание                             : Разделение по промежуткам
Продолжительность промежутка             : 96  мс. (2,30 видеокадра)
Время предзагрузки промежутка            : 96  мс.
Язык                                     : Russian
Скриншоты:
         
         -Время раздачи: 9.00 - 23.00 (по мере возможности...)
Вне форума [Профиль] [ЛС]
Показать сообщения:    
Ответить на тему

Текущее время: Сегодня 17:32

Часовой пояс: GMT + 3



Вы не можете начинать темы
Вы не можете отвечать на сообщения
Вы не можете редактировать свои сообщения
Вы не можете удалять свои сообщения
Вы не можете голосовать в опросах
Вы не можете прикреплять файлы к сообщениям
Вы не можете скачивать файлы