Сегодня идет свободное скачивание без начисления Download

Вперед, Франция! / Allez France! (1964) [H.264] DVDRip

Ответить на тему
 
Автор
Сообщение

Omen ®

Стаж: 4 года 1 месяц

Сообщений: 194382

Торрент-статистика

Пост 14-Янв-2013 12:56

[Цитировать]

-Вперед, Франция! / Allez France! (1964) [H.264]DVDRip- Русское название: Вперед, Франция!
Оригинальное название: Allez France!
Год выпуска: 1964
Жанр: Комедия
Описание фильма:
Обычный француз Анри приехал на чемпионат по регби в Англию поддержать французскую команду вместе с разношерстой толпой таких же обычных французов. На стадионе ему случайно выбили зубы, и сердобольные товарищи подкинули его к ближайшему дантисту.Ожидая в приемной у стоматолога, он, шутки ради, примеряет полицейскую форму,принадлежащую другому пациенту. И приключения начинаются...
Режиссер: Робер Дери, Пьер Черния
Актеры: Робер Дери, Анри Мартино, Колетт Броссе, Ричард Вернон(дублировал Ростислав Плятт), Анри Женe, Жан Лефевр(француз с петухом - дублировал Владимир Кенигсон), Колин Гордон, Ферди Мэйн, Диана Дорс, Катрин Сола, Пьер Торнад,Пьер Дори, Раймон Бюссьер, Жан Ришар, Марк Лестер, Рональд Фрайзер, Артур Мюйар, Перси Херберт, Бернард Криббинс, Робер Бюрнье, Робер Роллис, Жан Карме, Робер Дестен, Колин Блейкли, Годфри Куигли, Росс Паркер,Жак Легра
Продолжительность: 01:29:02
Перевод: Дублированный

Дата мировой премьеры: 10.10.64
Видеокодек: MPEG-4 AVC/H.264
Битрейт видео: ~2164 Кбит/сек
Размер кадра: 768x576
Качество видео: DVDRip
Аудиокодек: AC3 2.0
Битрейт аудио: 192 Кбит/сек

MediaInfo:

Общее
Уникальный идентификатор : 201478389264089491316591239053039202123 (0x9793538898F2E6739C6533A95B0D6F4B)
Полное имя : G:\1112\Вперед, Франция! Allez France! (1964) DVDRip\Allez France! 1964 DVDRip RUS.mkv
Формат : Matroska
Версия формата : Version 4 / Version 2
Размер файла : 1,50 Гбайт
Продолжительность : 1 ч. 29 м.
Общий поток : 2404 Кбит/сек
Дата кодирования : UTC 2010-02-22 21:41:31
Программа кодирования : mkvmerge v5.9.0 ('On The Loose') built on Dec 9 2012 15:37:01
Библиотека кодирования : libebml v1.3.0 + libmatroska v1.4.0
Видео
Идентификатор : 1
Формат : AVC
Формат/Информация : Advanced Video Codec
Профиль формата : [url=mailto:[email protected]][email protected][/url]
Параметр CABAC формата : Нет
Параметр ReFrames формата : 1 кадр
Параметр GOP формата : M=1, N=12
Режим смешивания : Header stripping
Идентификатор кодека : V_MPEG4/ISO/AVC
Продолжительность : 1 ч. 29 м.
Битрейт : 2164 Кбит/сек
Ширина : 768 пикселей
Высота : 576 пикселей
Соотношение сторон : 16:9
Режим частоты кадров : Постоянный
Частота кадров : 25,000 кадров/сек
Цветовое пространство : YUV
Субдискретизация насыщенности : 4:2:0
Битовая глубина : 8 бит
Тип развёртки : Прогрессивная
Бит/(Пиксели*Кадры) : 0.196
Размер потока : 1,35 Гбайт (90%)
Язык : Russian
Default : Да
Forced : Нет
Аудио
Идентификатор : 2
Формат : AC-3
Формат/Информация : Audio Coding 3
Расширение режима : CM (complete main)
Параметр Endianness формата : Big
Режим смешивания : Header stripping
Идентификатор кодека : A_AC3
Продолжительность : 1 ч. 29 м.
Вид битрейта : Постоянный
Битрейт : 192 Кбит/сек
Каналы : 2 канала
Расположение каналов : Front: L R
Частота : 48,0 КГц
Битовая глубина : 16 бит
Метод сжатия : С потерями
Размер потока : 122 Мбайт (8%)
Язык : Russian
Default : Да
Forced : Нет
Скриншоты:
         
         
Вне форума [Профиль] [ЛС]
Показать сообщения:    
Ответить на тему

Текущее время: Сегодня 00:20

Часовой пояс: GMT + 3



Вы не можете начинать темы
Вы не можете отвечать на сообщения
Вы не можете редактировать свои сообщения
Вы не можете удалять свои сообщения
Вы не можете голосовать в опросах
Вы не можете прикреплять файлы к сообщениям
Вы не можете скачивать файлы